<?xml version="1.0" standalone="no"?>
<!DOCTYPE svg PUBLIC "-//W3C//DTD SVG 1.1//EN" "http://www.w3.org/Graphics/SVG/1.1/DTD/svg11.dtd" >
<svg xmlns="http://www.w3.org/2000/svg">
<metadata>
This is a custom SVG webfont generated by Font Squirrel.
Designer    : Andrew Paglinawan
Foundry     : Andrew Paglinawan
</metadata>
<defs>
<font id="webfontcuKfewST" horiz-adv-x="430" >
<font-face units-per-em="1000" ascent="800" descent="-200" />
<missing-glyph horiz-adv-x="300" />
<glyph unicode=" "  horiz-adv-x="300" />
<glyph unicode="&#x09;" horiz-adv-x="300" />
<glyph unicode="&#xa0;" horiz-adv-x="300" />
<glyph unicode="!" horiz-adv-x="252" d="M93 167v51q0 12 13 12q12 0 12 -12v-51q0 -13 -12 -13q-13 0 -13 13zM93 268v51q0 13 13 13q12 0 12 -13v-51q0 -12 -12 -12q-13 0 -13 12zM93 370v50q0 13 13 13q12 0 12 -13v-50q0 -13 -12 -13q-13 0 -13 13zM93 471v51q0 12 13 12q12 0 12 -12v-51q0 -13 -12 -13 q-13 0 -13 13zM93 572v51q0 12 13 12q12 0 12 -12v-51q0 -5 -3.5 -9t-8.5 -4q-13 0 -13 13zM93 673v14q0 13 13 13q5 0 8.5 -4t3.5 -9v-14q0 -12 -12 -12q-13 0 -13 12zM93 13v24q0 12 13 12q12 0 12 -12v-24q0 -5 -3.5 -9t-8.5 -4q-13 0 -13 13z" />
<glyph unicode="&#x22;" horiz-adv-x="410" d="M115 693q3 -5 -5 -9q-17 -5 -24 -21q2 1 6 1q11 0 18.5 -7t7.5 -17t-8 -18t-18 -8q-18 0 -23 18q-1 0 -1 2v6v3v1q0 45 38 55h3q6 0 6 -6zM189 693q3 -5 -5 -9q-17 -5 -24 -21q2 1 6 1q11 0 18.5 -7t7.5 -17t-8 -18t-18 -8q-18 0 -23 18q-1 0 -1 2v2v4v4q0 45 38 55h3 q6 0 6 -6z" />
<glyph unicode="#" horiz-adv-x="700" d="M399 198h-52q-13 0 -13 13t13 13h9l9 52q1 5 5.5 8t9.5 2q13 -2 11 -15l-8 -47h16q14 0 14 -13t-14 -13zM189 198h-53q-13 0 -13 13t13 13h35l10 52q1 5 5.5 8t9.5 2t8 -5.5t2 -9.5l-9 -50q5 -5 5 -10q0 -13 -13 -13zM211 451h-44q-13 0 -13 14q0 13 13 13h49l1 5 q2 13 15 11q13 -3 11 -16l-9 -51q-2 -11 -13 -11h-2q-13 2 -11 15zM395 451h-17q-14 0 -14 14q0 13 14 13h22l1 5q4 13 16 11q12 -3 10 -16h3q13 0 13 -13q0 -14 -13 -14h-8l-4 -24q-2 -11 -13 -11h-2q-13 2 -11 15zM325 451h-53q-13 0 -13 14q0 13 13 13h53q13 0 13 -13 q0 -14 -13 -14zM535 451h-52q-13 0 -13 14q0 13 13 13h52q14 0 14 -13q0 -14 -14 -14zM203 312h-3q-13 4 -10 16l9 51q2 13 15 11t11 -15l-9 -52q-2 -11 -13 -11zM237 520q-13 2 -11 15l9 52q4 13 16 10q5 -1 8 -5.5t2 -9.5l-9 -52q-2 -11 -13 -11q-1 0 -1 0.5t-1 0.5z M421 520q-13 2 -11 15l10 52q1 5 5.5 8t9.5 2q13 -2 11 -15l-10 -52q-2 -11 -13 -11q0 1 -2 1zM442 623h-3q-13 4 -10 16l9 51q2 13 15 11t11 -15l-9 -52q-2 -11 -13 -11zM332 1h-2q-13 4 -11 16l9 51q2 13 15 11t11 -15l-9 -52q-2 -11 -13 -11zM148 1h-2q-13 3 -11 16l9 51 q2 13 15 11t11 -15l-9 -52q-2 -11 -13 -11zM387 312h-2q-13 3 -11 16l9 51q2 13 15 11t11 -15l-9 -52q-2 -11 -13 -11zM350 105h-2q-13 2 -11 15l9 52q4 13 16 11q5 -1 8 -5.5t2 -9.5l-9 -52q-2 -11 -13 -11zM166 105h-2q-13 2 -11 15l9 52q4 13 16 11t10 -15l-9 -52 q-2 -11 -13 -11zM505 198h-53q-13 0 -13 13t13 13h53q13 0 13 -13t-13 -13zM294 198h-52q-14 0 -14 13t14 13h52q13 0 13 -13t-13 -13zM258 623h-3q-13 4 -10 16l9 51q2 13 15 11t11 -15l-10 -52q-2 -11 -12 -11zM115 451h-26q-13 0 -13 14q0 13 13 13h26q13 0 13 -13 q0 -14 -13 -14zM84 198h-26q-13 0 -13 13t13 13h26q13 0 13 -13t-13 -13z" />
<glyph unicode="$" horiz-adv-x="632" d="M289 591v67q0 7 5 12t12 5q4 14 17 12q30 -1 69 -13q15 -10 10 -22q-3 -11 -15 -11q-3 0 -6 1q-34 10 -59 12v-63q0 -16 -16 -16q-7 0 -12 5t-5 11zM289 326v67q0 16 17 16q16 0 16 -16v-18q32 -6 63 -14q15 -3 11 -22q-3 -11 -16 -11h-4q-9 3 -54 13v-15q0 -17 -16 -17 q-7 0 -12 5t-5 12zM530 148q-18 4 -13 20q3 10 3 27q0 15 -3 29q-6 15 12 22q5 2 11.5 -1.5t7.5 -9.5q6 -20 6 -40q0 -22 -5 -36q-3 -12 -15 -12q-3 0 -4 1zM126 64q-38 24 -56 39q-12 9 -4 24q10 12 25 2q22 -20 52 -36q14 -7 7 -22q-5 -10 -15 -10q-5 0 -9 3zM97 539 q-7 1 -10 7.5t-1 13.5q15 37 41 61q4 5 11.5 5t11.5 -5q10 -13 0 -24q-22 -21 -32 -48q-3 -11 -15 -11q-5 0 -6 1zM251 359h-4q-35 9 -65 23q-14 6 -9 23q9 15 22 7q48 -18 60 -21q17 -6 12 -20q-3 -12 -16 -12zM289 60v68q0 16 17 16q16 0 16 -16v-68q0 -16 -16 -16 q-17 0 -17 16zM436 56q-7 14 7 23q32 20 47 37q11 14 23 2q12 -10 1 -23q-24 -29 -55 -46q-6 -2 -8 -2q-9 0 -15 9zM259 16h-3q-37 8 -68 19q-15 6 -10 21q7 15 23 11q21 -10 61 -19q15 -2 13 -19q-4 -13 -16 -13zM289 724v67q0 7 5 12t12 5q16 0 16 -17v-67q0 -16 -16 -16 q-17 0 -17 16zM486 272q-20 19 -51 34q-16 7 -7 22q5 14 22 8q33 -16 58 -39q12 -12 1 -24q-4 -5 -12 -5q-7 0 -11 4zM289 460v66q0 6 5 11t12 5q16 0 16 -16v-66q0 -18 -16 -18q-17 0 -17 18zM289 -72v66q0 7 5 12.5t12 5.5q16 0 16 -18v-66q0 -16 -16 -16q-7 0 -12 5 t-5 11zM121 421q-29 29 -39 64q-2 17 13 20q6 2 12 -2t8 -10q5 -24 29 -49q13 -10 1 -22q-5 -5 -13 -5q-6 0 -11 4zM177 640q-6 14 8 21q40 16 68 21q16 5 20 -14q2 -14 -13 -18q-33 -6 -60 -18q-4 -2 -7 -2q-10 0 -16 10zM308 27q0 16 15 18q35 2 63 10q14 3 20 -12 q1 -7 -2.5 -12.5t-8.5 -7.5q-35 -10 -70 -11h-1q-14 0 -16 15zM495 582q-9 7 -28 18.5l-27 16.5q-14 7 -7 22q3 6 9.5 7.5t12.5 -1.5q24 -12 58 -36q13 -8 5 -22q-6 -8 -15 -8q-3 0 -8 3zM289 194v66q0 16 17 16q16 0 16 -16v-66q0 -16 -16 -16q-17 0 -17 16z" />
<glyph unicode="&#x26;" horiz-adv-x="696" d="M121 374q-8 10 2 18q17 15 36 26q-11 10 -23 27q-8 9 3 18q10 7 18 -3q16 -21 33 -33q4 -2 4.5 -7.5t-2.5 -9.5q-2 -5 -9 -5q-2 -4 -5 -4q-10 -6 -39 -28q-1 -4 -8 -4q-6 0 -10 5zM471 242q-1 24 -9 47q-4 11 8 17h2q1 1 3 1q24 2 39 15q12 7 18 -2q8 -9 -1 -18 q-19 -16 -41 -19q1 -5 7 -38q2 -12 -12 -14h-1q-9 0 -13 11zM74 287h-3q-5 1 -7.5 6t-0.5 10q8 24 24 48q9 11 18 4q10 -8 4 -18q-16 -25 -22 -43q-3 -7 -13 -7zM187 664q-6 11 5 18q28 13 52 17q14 2 14 -10q3 -13 -10 -16q-23 -2 -43 -14h-1q-2 -1 -5 -1q-6 0 -12 6z M253 151l-1 5q-1 4 -2 12t-1 17q0 14 2 22q2 12 15 10q4 0 7.5 -4.5t2.5 -9.5q-1 -6 -1 -18q0 -15 1 -20l1 -6q5 -11 -7 -17h-4q-11 0 -13 9zM465 133q-11 6 -8 17q7 15 13 45q1 5 5.5 8t9.5 2q13 -2 10 -14q-3 -25 -14 -52q-3 -7 -11 -7q-4 0 -5 1zM50 198q-1 9 -1 26 q0 18 1 27q4 14 14 11q12 -2 12 -13q-2 -8 -2 -25q0 -15 2 -24q2 -11 -12 -14h-1q-10 0 -13 12zM396 587q-6 18 -22 41q-9 9 1 17q9 8 18 -1q18 -24 28 -48q4 -11 -8 -15q-1 -1 -5 -1q-8 0 -12 7zM88 98q-17 26 -25 48q-2 4 0.5 9t7.5 7q4 2 9 0t7 -7q6 -19 22 -42 q6 -11 -3 -18q-4 -2 -8 -2q-5 0 -10 5zM276 241q-10 8 0 18q16 20 46 31q12 6 16 -6q6 -12 -6 -16q-23 -10 -37 -26q-4 -5 -10 -5q-5 0 -9 4zM126 586q-5 2 -7 6.5t1 9.5q9 26 29 46q9 10 18 1q8 -8 1 -17q-15 -16 -25 -40q-4 -7 -12 -7q-3 0 -5 1zM167 27q-30 18 -43 31 q-13 8 -1 18q2 4 7.5 4t9.5 -4q16 -13 40 -27q9 -5 5 -17q-5 -7 -12 -7q-4 0 -6 2zM308 15q-3 13 10 15q27 7 44 17q12 3 18 -6q5 -12 -6 -17q-24 -12 -51 -18q0 -1 -3 -1q-8 0 -12 10zM271 0h-1q-25 0 -54 8q-12 2 -8 15q4 12 16 9q24 -7 47 -7q13 0 13 -12q-4 -13 -13 -13 zM400 55q-7 11 3 17q29 32 32 36q2 4 7.5 4.5t9.5 -2.5q13 -5 3 -17q-14 -20 -36 -40q-4 -2 -9 -2q-6 0 -10 4zM112 495q-6 28 -6 44q0 6 1 10q0 5 4.5 9t8.5 3q13 0 13 -13q-2 -4 -2 -9t5 -38q6 -11 -8 -15h-3q-10 0 -13 9zM362 290q-2 12 12 14q20 4 50 4h2q12 0 12 -13 q0 -12 -12 -12h-2q-28 0 -47 -4h-2q-11 0 -13 11zM338 657q-25 12 -44 16q-11 3 -9 14q2 14 14 10q20 -2 52 -19q4 -1 5 -6.5t-1 -9.5q-4 -6 -11 -6q-5 0 -6 1zM546 344h-2q-13 0 -11 14v11q0 8 -2 28q-5 13 9 15q13 2 15 -9q4 -16 4 -34v-15q-1 -10 -13 -10zM405 539v4 q0 12 13 12t13 -12v-4q0 -13 -13 -13t-13 13z" />
<glyph unicode="'" horiz-adv-x="230" d="M71 622q-3 5 5 9q18 4 23 20h-5q-11 0 -18.5 7t-7.5 17q0 11 8 18.5t18 7.5q18 0 23 -18q0 -2 1 -2v-10q0 -45 -38 -55h-3q-6 0 -6 6z" />
<glyph unicode="(" d="M106 497q-14 4 -10 18q8 27 20 56q5 14 19 8q14 -5 8 -19q-8 -19 -19 -53q-2 -11 -14 -11h-2q-1 1 -2 1zM225 -89q-14 5 -9 19q6 14 19 8q24 -9 51 -9q6 0 10.5 -4.5t4.5 -10.5q0 -14 -15 -14q-36 0 -61 11zM80 164q-5 29 -6 58q-2 14 13 16q14 0 16 -14q2 -29 6 -56 q2 -14 -13 -16q0 -1 -2 -1q-12 0 -14 13zM149 604q-12 10 -3 20q21 28 44 45q10 9 20 -3q7 -13 -3 -21q-19 -12 -37 -37q-4 -6 -12 -6q-6 0 -9 2zM71 281v19q0 27 1 40q0 14 15 14q14 -2 14 -15q-1 -13 -1 -39v-18q0 -15 -14 -15q-15 0 -15 14zM108 48q-8 21 -17 58 q-4 13 11 17q13 4 17 -11q9 -34 16 -54q5 -12 -8 -18q-2 -1 -5 -1q-10 0 -14 9zM172 -55q-21 20 -38 49q-7 12 5 20q11 6 20 -6q13 -24 33 -42q11 -11 0 -20q-5 -5 -10 -5q-7 0 -10 4zM90 383h-1q-6 0 -10 5t-3 10q4 37 7 59q3 14 17 12q14 -3 12 -17q-6 -34 -8 -56 q0 -13 -14 -13zM236 678q-3 13 11 17q20 5 39 5q6 0 10.5 -4.5t4.5 -10.5q0 -14 -15 -14q-12 0 -32 -4h-4q-11 0 -14 11z" />
<glyph unicode=")" d="M255 497q-1 0 -3 -1h-1q-12 0 -14 11q-11 34 -19 53q-6 14 8 19q14 6 19 -8q12 -29 20 -56q4 -14 -10 -18zM136 -89q-25 -11 -61 -11q-15 0 -15 14q0 6 4.5 10.5t10.5 4.5q27 0 51 9q13 6 19 -8q5 -14 -9 -19zM281 164q-2 -13 -14 -13q-2 0 -2 1q-15 2 -13 16q4 27 6 56 q2 14 16 14q15 -2 13 -16q-1 -29 -6 -58zM212 604q-3 -2 -9 -2q-7 0 -12 6q-18 25 -37 37q-10 8 -3 21q10 12 20 3q23 -17 44 -45q9 -10 -3 -20zM290 281q0 -14 -15 -14q-14 0 -14 15v18q0 26 -1 39q0 13 14 15q15 0 15 -14q1 -13 1 -40v-19zM253 48q-4 -9 -14 -9q-3 0 -5 1 q-13 6 -8 18q7 20 16 54q4 15 17 11q15 -4 11 -17q-9 -37 -17 -58zM189 -55q-3 -4 -10 -4q-5 0 -10 5q-11 9 0 20q19 18 33 42q9 12 20 6q12 -8 5 -20q-17 -29 -38 -49zM272 383h-1q-14 0 -14 13q-2 22 -8 56q-2 14 12 17q14 2 17 -12q3 -22 7 -59q1 -5 -3 -10t-10 -5z M125 678q-3 -11 -14 -11h-4q-20 4 -32 4q-15 0 -15 14q0 6 4.5 10.5t10.5 4.5q19 0 39 -5q14 -4 11 -17z" />
<glyph unicode="*" d="M204 159q-14 10 -2 18q-12 3 -12 12q0 12 10 14q-6 10 4 20t18 0q2 12 12 12t13 -10q9 5 21 -2q5 -9 2 -20q10 -2 10 -14q0 -9 -12 -12q9 -7 0 -18q-5 -3 -11 -3t-9 1q-3 -12 -14 -12q-10 0 -12 12q-2 -1 -8 -1q-8 0 -10 3zM122 77q-9 14 0 21l41 41q8 8 21 0 q9 -12 0 -21l-41 -41q-4 -3 -12 -3q-4 0 -9 3zM163 243l-41 40q-7 11 0 19q13 13 21 0l41 -38q10 -11 0 -21q-7 -6 -11 -6q-8 0 -10 6zM328 77l-40 41q-14 9 0 21q8 8 21 0l38 -41q9 -7 0 -21l-8 -3q-8 0 -11 3zM288 243q-6 4 -6 10.5t6 10.5l40 38q8 11 19 0q7 -8 0 -19 l-38 -40q-6 -6 -11 -6q-6 0 -10 6zM150 177h-58q-7 0 -11.5 4t-4.5 8q0 15 16 15h58q13 0 13 -15q0 -4 -4 -8t-9 -4zM222 47v58q0 13 12 13q15 0 15 -13v-58q0 -6 -4.5 -11t-10.5 -5q-12 0 -12 16zM222 278v57q0 15 12 15q6 0 10.5 -5t4.5 -10v-57q0 -14 -15 -14 q-12 0 -12 14zM380 177h-57q-5 0 -9.5 4.5t-4.5 7.5q0 15 14 15h57q15 0 15 -15q0 -3 -5 -7.5t-10 -4.5z" />
<glyph unicode="+" horiz-adv-x="620" d="M236 178v27q0 5 3.5 9t8.5 4q14 0 14 -13v-27q0 -5 -4 -9t-10 -4q-4 0 -8 4t-4 9zM236 258v53q0 5 3.5 9t8.5 4q14 0 14 -13v-53q0 -13 -14 -13q-5 0 -8.5 4t-3.5 9zM236 363v53q0 5 3.5 9t8.5 4q14 0 14 -13v-53q0 -12 -14 -12q-4 0 -8 3.5t-4 8.5zM236 468v54 q0 5 3.5 9t8.5 4q14 0 14 -13v-54q0 -12 -14 -12q-4 0 -8 4t-4 8zM367 337q-13 0 -13 14q0 12 13 12h54q13 0 13 -12q0 -14 -13 -14h-54zM262 337q-5 0 -9.5 4t-4.5 10q0 12 14 12h53q13 0 13 -12q0 -14 -13 -14h-53zM156 337q-13 0 -13 14q0 12 13 12h54q13 0 13 -12 q0 -14 -13 -14h-54zM77 337q-13 0 -13 14q0 12 13 12h27q12 0 12 -12q0 -14 -12 -14h-27z" />
<glyph unicode="," horiz-adv-x="230" d="M57 -25q-3 5 5 9q18 5 23 20h-5q-11 0 -18.5 7t-7.5 17t8 18t18 8q18 0 23 -18q0 -2 1 -2v-10q0 -45 -38 -55h-3q-6 0 -6 6z" />
<glyph unicode="-" horiz-adv-x="408" d="M189 340q-7 0 -7 10q0 11 7 11h29q8 0 8 -11q0 -10 -8 -10h-29zM131 340q-7 0 -7 10q0 11 7 11h29q8 0 8 -11q0 -10 -8 -10h-29zM73 340q-7 0 -7 10q0 11 7 11h29q8 0 8 -11q0 -10 -8 -10h-29z" />
<glyph unicode="." horiz-adv-x="230" d="M132 28q0 -10 -7 -17.5t-17 -7.5t-18 7.5t-8 17.5t7.5 17.5t18.5 7.5q10 0 17 -7.5t7 -17.5z" />
<glyph unicode="/" horiz-adv-x="422" d="M83 1q-12 6 -7 17l8 20q5 12 17 7q5 -2 7 -7t0 -9l-8 -21q-5 -8 -13 -8q-3 0 -4 1zM111 68q-11 5 -6 17l19 46q2 5 7 7.5t9 0.5q11 -7 8 -18l-21 -45q-2 -9 -11 -9l-2 1h-3zM150 162q-12 4 -6 16l19 47q4 12 16 6q12 -4 8 -16l-20 -47q-3 -8 -12 -8q-4 0 -5 2zM189 255 q-11 5 -6 17l19 46q6 10 16 7q12 -4 8 -17l-20 -46q-3 -8 -12 -8q-3 0 -5 1zM228 347q-9 6 -6 18l19 46q7 11 18 7q12 -4 6 -16l-20 -47q-2 -8 -12 -8h-5zM268 441q-11 5 -7 16l19 47q8 11 18 6q12 -4 6 -16l-20 -47q-2 -7 -11 -7q-1 0 -2.5 0.5t-2.5 0.5zM307 534 q-11 5 -7 17l21 47q3 10 16 6q11 -6 6 -16l-20 -47q-2 -8 -11 -8q-3 0 -5 1zM346 628q-11 6 -6 16l20 47q4 12 16 6q11 -3 7 -16l-21 -47q-1 -7 -11 -7q-3 0 -5 1z" />
<glyph unicode="0" horiz-adv-x="710" d="M293 0q-14 2 -12 14q0 6 4 9.5t9 1.5h9q5 0 38 5q11 6 15 -8q2 -13 -9 -16q-30 -6 -44 -6h-10zM240 13q-22 8 -47 26q-9 7 -3 18q9 9 18 2q16 -12 41 -24v0q12 -3 7 -16q-2 -8 -11 -8q-4 0 -5 2zM379 32q-7 10 4 17q20 13 38 31q2 4 7.5 4t9.5 -4q9 -9 0 -18 q-17 -19 -41 -34q-3 -1 -7 -1q-8 0 -11 5zM155 76q-12 13 -32 43q-4 12 5 18q12 4 18 -5q12 -20 28 -40q3 -4 3 -9.5t-4 -7.5q-4 -4 -9 -4q-6 0 -9 5zM454 99q-10 8 -3 17q12 17 24 43v0q5 11 17 6q10 -5 6 -17q-14 -28 -27 -45q-3 -6 -10 -6q-5 0 -7 2zM100 166 q-11 28 -17 49q-3 11 9 15q5 2 9.5 -1t5.5 -7q8 -26 16 -47q4 -10 -6 -17h-5q-9 0 -12 8zM502 189q-11 3 -9 16q10 30 13 47v0q2 12 15 10q12 -2 10 -15q-3 -14 -14 -51q-2 -9 -11 -9q-1 0 -2 1zM71 266q-6 46 -6 50q0 14 13 14q12 0 12 -11q3 -29 7 -49q2 -12 -10 -16h-3 q-10 0 -13 12zM524 287q-11 0 -11 14q3 15 3 48q0 2 2 8q-2 2 -2 6q0 16 -4 50q-2 10 11 14q12 2 14 -12q4 -21 4 -50q0 -6 -1 -8q1 -3 1 -8q0 -34 -3 -50q0 -12 -12 -12h-2zM76 356q-11 0 -11 12q0 11 2 29.5t2 22.5q2 14 15 12q12 -4 10 -16q-4 -30 -4 -48q0 -12 -12 -12 h-2zM503 461q-3 11 -14 47q-4 13 8 16q5 2 10 -0.5t6 -7.5q8 -25 14 -49q2 -6 -1 -10t-8 -5h-1l-1 -1q-11 0 -13 10zM89 456q-12 3 -10 16q8 28 16 50q6 11 17 7q12 -4 6 -16q-11 -36 -14 -47q-3 -10 -12 -10h-3zM469 553q-11 20 -26 41q-4 4 -3 9.5t6 7.5q9 7 18 -2 q15 -21 28 -44q3 -11 -5 -18q-1 0 -3 -0.5t-4 -0.5q-8 0 -11 7zM122 552q-5 2 -6.5 7t1.5 9q15 29 29 45q6 9 18 2q10 -8 1 -18q-9 -12 -27 -40v0q-1 -6 -10 -6q-5 0 -6 1zM411 629q-10 10 -38 28q-11 3 -7 16q7 12 18 5q24 -11 43 -30q10 -9 1 -18q-3 -3 -9 -3t-8 2z M180 634q-8 9 1 18q21 16 46 29q4 3 9 1.5t7 -6.5q5 -10 -6 -18q-16 -7 -39 -25q-4 -4 -8 -4q-6 0 -10 5zM328 672q-2 0 -11 1.5t-14 1.5t-12.5 -1.5t-9.5 -1.5v0q-11 0 -13 12q-4 11 10 13q13 3 25 3q15 0 29 -3q12 -1 10 -15q0 -10 -11 -10h-3z" />
<glyph unicode="1" horiz-adv-x="335" d="M166 634v29l-25 -15q-4 -2 -6 -2q-7 0 -12 6q-6 11 5 18l41 24q5 5 10 5q13 0 13 -13v-52q0 -13 -13 -13t-13 13zM166 13v52q0 5 4 9t9 4q13 0 13 -13v-52q0 -13 -13 -13t-13 13zM166 427v52q0 5 4 9t9 4q13 0 13 -13v-52q0 -13 -13 -13t-13 13zM166 220v52q0 5 4 9t9 4 q13 0 13 -13v-52q0 -13 -13 -13t-13 13zM166 323v52q0 13 13 13t13 -13v-52q0 -12 -13 -12t-13 12zM166 116v52q0 13 13 13t13 -13v-52q0 -12 -13 -12t-13 12zM166 530v52q0 13 13 13t13 -13v-52q0 -12 -13 -12t-13 12zM34 599q-6 11 5 18l44 26q12 7 18 -4q7 -10 -5 -18 l-44 -26l-6 -2q-9 0 -12 6z" />
<glyph unicode="2" horiz-adv-x="590" d="M381 625q-17 17 -40 27q-10 7 -5 18t17 5q19 -10 44 -29q10 -8 1 -19q-3 -4 -8 -4t-9 2zM462 442h-2q-13 2 -11 14q0 3 0.5 10t0.5 10q0 8 -2 28q-2 10 11 14q12 2 14 -12l3 -30q0 -4 -1 -11.5t-1 -11.5q-2 -11 -12 -11zM435 549q-5 14 -21 42q-9 9 2 18q10 8 18 -4 q17 -23 25 -47q6 -12 -7 -16h-2l-2 -1q-8 0 -13 8zM300 668h-3q-26 7 -45 7h-2q-12 0 -12 12q0 13 12 13h2q17 0 51 -6q13 -4 9 -16q-2 -10 -12 -10zM421 349q-10 7 -4 18q11 15 22 42q1 5 6 7t9 0q12 -1 8 -15q-8 -25 -23 -48q-4 -6 -11 -6q-1 0 -7 2zM198 143q-8 8 2 18 l36 34q10 8 18 -1q9 -9 0 -18l-38 -34q-2 -3 -9 -3q-3 0 -9 4zM273 211q-8 9 1 18l38 33q9 9 18 0q8 -10 -1 -18l-38 -34q-2 -4 -8 -4q-5 0 -10 5zM362 0h-51q-13 0 -13 13q0 12 13 12h51q12 0 12 -12q0 -5 -3.5 -9t-8.5 -4zM159 0h-50q-13 0 -13 13q0 12 13 12h50 q13 0 13 -12q0 -13 -13 -13zM260 0h-50q-13 0 -13 13q0 12 13 12h50q13 0 13 -12q0 -13 -13 -13zM463 0h-51q-12 0 -12 13q0 12 12 12h51q13 0 13 -12q0 -5 -4 -9t-9 -4zM124 75q-4 4 -4 9.5t4 7.5l38 35q8 7 17 -2q11 -9 -1 -17l-37 -35q-4 -2 -8 -2q-6 0 -9 4zM48 6 q-8 10 1 19l38 33q9 9 18 0q4 -4 3 -9.5t-5 -7.5l-36 -35q-5 -3 -9 -3q-7 0 -10 3zM349 278q-9 11 0 18l36 32l2 2q9 9 18 0q10 -10 -2 -19q0 -1 -2 -1l-34 -32q-5 -3 -9 -3t-9 3zM141 657q-6 13 6 16q27 15 50 19q11 6 15 -8q4 -12 -9 -16q-18 -3 -45 -16q-1 -1 -5 -1 q-8 0 -12 6zM64 591q-10 10 2 18l35 33l1 1q10 10 18 -1q9 -9 0 -18h-1q-1 -1 -2 -1l-35 -32q-6 -4 -9 -4t-9 4z" />
<glyph unicode="3" horiz-adv-x="610" d="M322 41q12 6 17 -7q3 -12 -7 -17q-25 -10 -53 -15h-2q-11 0 -13 11q-2 12 10 14q20 4 48 14zM273 437h-2q-9 2 -28 2q-9 0 -12 7q-1 0 -2 1q-9 9 0 18l36 37q9 11 19 1q10 -9 0 -19l-19 -20q6 0 10 -1q13 -2 11 -14t-13 -12zM400 99q3 4 8.5 4.5t9.5 -3.5q11 -7 2 -18 l-7 -7t-7 -8q-12 -12 -26 -23q-3 -2 -8 -2q-7 0 -11 5q-7 11 3 18q12 9 24 21q8 8 12 13zM226 25q12 0 12 -14q-2 -12 -13 -12h-1q-33 3 -54 11q-13 4 -9 16q4 13 17 9q20 -7 48 -10zM452 298q12 4 16 -9q7 -31 7 -55q0 -13 -13 -13t-13 13q0 25 -6 49q-4 13 9 15zM459 195 q12 -2 10 -15q-6 -25 -19 -52q-3 -7 -12 -7q-4 0 -5 1q-12 5 -6 17q12 26 16 46q4 13 16 10zM133 55q11 -7 4 -18q-3 -6 -11 -6q-4 0 -7 2q-18 11 -43 34q-9 9 0 18q10 9 19 0q16 -17 38 -30zM311 442q5 12 17 7q28 -11 49 -26q10 -8 3 -18q-4 -6 -11 -6q-3 0 -8 3 q-20 14 -43 23q-10 5 -7 17zM399 387q4 4 9.5 3.5t8.5 -4.5q18 -19 32 -46q6 -11 -6 -17q-4 -2 -6 -2q-7 0 -12 7q-9 20 -27 41q-8 9 1 18zM311 518q-5 0 -9 3q-10 9 0 19l36 37q9 9 19 0q9 -9 0 -18l-37 -37q-3 -4 -9 -4zM375 596q-9 9 0 18l36 38q9 9 18 0q9 -10 1 -18 l-37 -38q-4 -4 -9 -4t-9 4zM331 673q-13 0 -13 13t13 13h52q13 0 13 -13t-13 -13h-52zM435 673q-13 0 -13 13t13 13h27q13 0 13 -13q0 -2 -2 -6q0 -2 -3 -4l-4 -5q-4 -4 -9 -4q-6 0 -10 4q0 1 -0.5 1t-0.5 1h-11zM123 673q-13 0 -13 13t13 13h52q13 0 13 -13t-13 -13h-52z M227 673q-13 0 -13 13t13 13h52q13 0 13 -13t-13 -13h-52z" />
<glyph unicode="4" horiz-adv-x="664" d="M571 136h-52q-9 0 -12 7v-26q0 -13 -13 -13t-13 13v52q0 4 4 8t9 4q13 0 13 -12v-15q4 8 12 8h52q13 0 13 -13t-13 -13zM481 635v14l-19 -23q-4 -5 -11 -5q-4 0 -7 3q-11 6 -3 18l34 40q2 4 6 4v1q0 5 4 9t9 4q13 0 13 -13v-52q0 -13 -13 -13t-13 13zM314 461q-8 8 -3 19 l33 41q10 10 18 1q4 -2 5 -8t-2 -10l-33 -40q-2 -5 -10 -5q-6 0 -8 2zM379 543q-11 6 -3 18l33 40q9 11 18 2q10 -6 2 -18l-32 -41q-7 -5 -10 -5q-4 0 -8 4zM260 136h-52q-13 0 -13 13t13 13h52q13 0 13 -13t-13 -13zM467 136h-52q-13 0 -13 13q0 5 4 9t9 4h52q13 0 13 -13 t-13 -13zM363 136h-52q-13 0 -13 13q0 5 4 9t9 4h52q13 0 13 -13t-13 -13zM156 136h-52q-13 0 -13 13q0 5 4 9t9 4h52q13 0 13 -13t-13 -13zM481 220v52q0 5 4 9t9 4q13 0 13 -13v-52q0 -13 -13 -13q-5 0 -9 4t-4 9zM481 13v52q0 5 4.5 9t8.5 4q13 0 13 -13v-52 q0 -13 -13 -13t-13 13zM481 324v52q0 4 4.5 8.5t8.5 4.5q13 0 13 -13v-52q0 -13 -13 -13t-13 13zM481 428v52q0 4 4.5 8.5t8.5 4.5q13 0 13 -13v-52q0 -13 -13 -13t-13 13zM53 139q-9 9 -2 18l34 40q5 11 18 3q8 -10 1 -19l-32 -40q-4 -5 -11 -5q-3 0 -8 3zM481 531v52 q0 5 4 9t9 4q13 0 13 -13v-52q0 -12 -13 -12t-13 12zM183 301q-4 3 -4.5 8.5t3.5 9.5l32 40q3 4 8.5 4.5t9.5 -3.5q10 -7 2 -18l-33 -40q-3 -4 -9 -4t-9 3zM118 219q-10 9 -1 18l32 42q7 9 19 1q4 -3 4.5 -8.5t-3.5 -9.5l-33 -40q-4 -6 -10 -6q-2 0 -4.5 1.5t-3.5 1.5z M248 381q-10 10 -1 18l32 40q7 12 18 3q10 -10 3 -18l-33 -40q-3 -5 -10 -5q-3 0 -9 2z" />
<glyph unicode="5" horiz-adv-x="605" d="M415 328q-10 21 -28 41q-4 4 -3.5 9.5t4.5 8.5q11 9 19 -1q19 -20 31 -46q7 -9 -5 -17q-3 -1 -7 -1q-7 0 -11 6zM351 401q-19 16 -43 24q-11 5 -7 17q5 11 17 8q26 -11 48 -26q9 -9 3 -19q-4 -5 -10 -5t-8 1zM269 674h-53q-13 0 -13 13q0 5 4 9t9 4h53q5 0 9 -4t4 -9 q0 -13 -13 -13zM102 411q-8 11 4 18q19 13 49 25q12 2 17 -9q5 -12 -8 -16q-20 -7 -44 -22q-3 -2 -8 -2q-6 0 -10 6zM99 583h-1q-12 2 -12 15l7 51q2 14 14 12q14 -2 12 -14l-7 -53q0 -11 -13 -11zM87 480h-1q-14 2 -12 14l7 52q0 12 14 12q12 -2 12 -16l-7 -51 q-2 -11 -13 -11zM74 377h-1q-12 0 -12 14l7 51q2 14 14 12q14 0 12 -15l-7 -52q0 -10 -13 -10zM108 33q-28 20 -43 35q-10 8 0 18q4 4 10 4t8 -4q22 -20 40 -31q4 -2 5 -7.5t-2 -9.5q-4 -7 -10 -7q-5 0 -8 2zM214 0h-1q-30 2 -54 10q-11 4 -9 16q4 11 17 9q24 -8 48 -9 q5 -1 9 -5.5t3 -8.5q0 -12 -13 -12zM262 438h-1q-11 1 -30 1h-20q-12 -2 -14 12q0 12 12 14h22q22 0 34 -1q12 -2 10 -16q-2 -10 -13 -10zM253 13q-2 12 10 14q25 4 49 15q10 3 17 -8q3 -11 -8 -17q-27 -11 -52 -14q-2 -2 -3 -2q-11 0 -13 12zM164 674h-52q-13 0 -13 13 t13 13h52q5 0 9 -4t4 -9q0 -13 -13 -13zM422 123q-12 4 -6 16q11 22 17 47q2 12 15 10q13 -4 11 -16q-8 -30 -20 -52q-3 -7 -11 -7q-4 0 -6 2zM373 674h-52q-13 0 -13 13t13 13h52q5 0 9 -4t4 -9q0 -13 -13 -13zM351 47q-7 11 2 18q18 14 24 21q7 6 13 13q8 11 18 1 q9 -8 1 -18q-4 -5 -13 -14q-14 -14 -27 -24q-6 -2 -8 -2q-7 0 -10 5zM438 235q0 28 -5 48q-6 12 9 16q12 4 16 -10q6 -36 6 -54q0 -13 -13 -13t-13 13zM451 674h-26q-13 0 -13 13t13 13h26q13 0 13 -13t-13 -13z" />
<glyph unicode="6" horiz-adv-x="642" d="M79 249l-1 2q-14 2 -11 14q5 28 15 51l1 2q1 2 2 2q-2 -2 -7 -2h-1q-14 0 -12 14q4 35 7 50q2 13 15 10q12 -2 10 -15q-4 -15 -6 -48q-1 -2 -3 -5q-1 -1 -1 -2q4 3 11 1q12 -4 8 -17q-11 -24 -14 -45q-2 -12 -13 -12zM496 165q-11 2 -9 15q5 19 5 47q0 19 -1 27 q-3 12 11 14q5 2 9 -1.5t5 -9.5q1 -10 1 -30q0 -32 -6 -54q-2 -10 -12 -10q-1 0 -1 1zM125 513q-13 5 -5 17q10 22 26 45q7 10 18 3q11 -9 4 -17q-12 -17 -26 -43q-4 -7 -11 -7q-4 0 -6 2zM425 377q-19 15 -39 27q-11 6 -6 18q5 11 17 5q30 -17 44 -31q9 -10 1 -18 q-5 -5 -10 -5q-3 0 -7 4zM272 1q-5 0 -9 4.5t-3 9.5q0 12 14 12q5 -2 17 -2l30 3q13 2 15 -10q0 -13 -11 -15q-18 -3 -34 -3q-13 0 -19 1zM92 418q-5 1 -8 6t-1 9q1 5 15 49q5 11 17 8q12 -6 7 -17l-15 -46q-2 -11 -11 -11q-3 0 -4 2zM74 158q-9 31 -10 53q0 12 13 14 q12 0 12 -12q4 -32 9 -47q5 -11 -7 -15q-1 0 -3 -1l-1 -1q-11 0 -13 9zM112 344q-11 9 -2 18q15 22 36 39q9 8 18 -1q8 -11 -3 -19q-17 -16 -31 -34q-5 -5 -10 -5q-6 0 -8 2zM445 77q-9 9 -1 19q18 21 26 39q5 11 17 6q11 -7 6 -18q-17 -29 -30 -45q-4 -3 -9 -3q-3 0 -9 2z M360 24q-4 12 7 17q25 10 41 22q11 6 18 -2q7 -12 -3 -18q-15 -11 -46 -27h-5q-7 0 -12 8zM223 11h-3q-30 11 -50 23q-10 8 -3 18q5 10 17 4q22 -13 43 -21q12 -2 8 -15q-1 -9 -12 -9zM186 413q-8 12 5 17q25 12 50 18q14 2 15 -10q4 -13 -10 -15q-24 -6 -44 -15 q-1 -2 -5 -2q-9 0 -11 7zM129 68q-15 15 -33 42q-6 12 5 18q12 4 17 -5q11 -20 30 -37q6 -9 0 -19q-6 -2 -11 -2t-8 3zM260 659q-6 11 7 17q34 13 49 16q13 4 15 -10q5 -9 -9 -15q-17 -2 -45 -14q-3 -1 -5 -1q-11 0 -12 7zM479 300q-8 21 -23 42q-7 11 3 17q11 7 18 -3 q16 -22 25 -47q6 -11 -6 -17h-5q-10 0 -12 8zM344 422h-3q-30 6 -47 6q-12 0 -12 13q0 12 12 12q30 0 54 -7q12 -4 8 -16q-2 -8 -12 -8zM180 597q-8 10 0 18q15 16 40 34q11 8 17 -2q7 -11 -2 -18q-14 -9 -37 -32q-3 -3 -9 -3q-5 0 -9 3zM356 686q0 12 13 14h4q13 0 13 -13 q0 -5 -4 -8.5t-8 -3.5h-5q-13 0 -13 11z" />
<glyph unicode="7" horiz-adv-x="587" d="M405 628q-11 6 -6 16l12 29h-31q-13 0 -13 13t13 13h50q3 0 9 -4v-1l2 -2l1 -2v-2l1 -2q0 -3 -1 -4v-1l-20 -47q-3 -7 -12 -7q-2 0 -5 1zM228 673h-50q-13 0 -13 13t13 13h50q5 0 9 -4t4 -9q0 -13 -13 -13zM329 673h-50q-13 0 -13 13t13 13h50q5 0 9 -4t4 -9 q0 -13 -13 -13zM127 673h-50q-13 0 -13 13t13 13h50q5 0 9 -4.5t4 -8.5q0 -5 -4 -9t-9 -4zM248 255q-10 5 -6 17l19 46q5 11 17 7q12 -5 7 -17l-20 -46q-1 -8 -11 -8q-4 0 -6 1zM293 347h-5q-10 6 -7 18l19 46q7 11 18 7q12 -4 6 -16l-20 -47q-2 -8 -11 -8zM170 68 q-11 5 -6 17l19 46q1 5 6 7.5t10 0.5q11 -6 8 -18l-20 -45q-4 -9 -12 -9q-1 0 -3 1h-2zM209 162q-12 4 -6 16l19 47q4 12 16 6q12 -3 8 -16l-20 -47q-3 -8 -12 -8q-3 0 -5 2zM327 441q-11 5 -7 16l19 47q8 12 18 6q12 -4 6 -16l-20 -47q-2 -7 -11 -7h-2q-2 1 -3 1zM366 534 q-12 6 -6 17l20 47q3 10 16 6q11 -5 7 -16l-21 -47q-2 -8 -11 -8q-2 0 -5 1zM142 1q-12 6 -7 17l9 20q4 13 16 7q12 -4 8 -16l-9 -21q-5 -8 -13 -8q-2 0 -4 1z" />
<glyph unicode="8" horiz-adv-x="630" d="M228 432q-25 8 -46 28q-9 9 0 18t17 1q19 -17 37 -24q10 -4 8 -13q9 0 25 2q4 4 9 4q23 0 44 9q11 4 16 -6q4 -12 -6 -17q-12 -6 -26 -9q-4 -7 -13 -7q-5 2 -16 2l-30 -3h-2q-9 0 -13 11v3q-1 0 -2 1h-2zM56 192q-1 10 -1 30q0 33 6 52q1 5 5.5 7.5t9.5 1.5q11 -2 9 -15 q-5 -19 -5 -46q0 -17 1 -26q2 -13 -11 -15h-1q-11 0 -13 11zM311 15q-4 13 10 15q30 9 43 15q12 6 16 -5q7 -10 -5 -18q-18 -8 -49 -17h-3q-10 0 -12 10zM466 128q-12 3 -8 16q11 24 14 45q2 11 14 11q13 -2 11 -15q-7 -30 -15 -51q-5 -7 -12 -7q-1 0 -2 1h-2zM273 0 q-30 0 -52 7q-13 4 -8 15q1 5 5.5 8t9.5 1q21 -6 45 -6q13 0 13 -13q0 -12 -13 -12zM215 671q-3 12 6 17q25 11 54 11q4 1 8 -2.5t4 -8.5q0 -12 -12 -14q-23 0 -44 -9q-1 -1 -5 -1q-7 0 -11 7zM390 562q0 27 -9 44q-3 11 7 17q10 5 16 -7q11 -26 12 -53q0 -12 -12 -12 t-14 11zM446 324q-10 19 -29 37q-5 9 0 18q9 9 19 0q12 -13 32 -43q7 -11 -5 -16q-2 -2 -6 -2q-8 0 -11 6zM381 390q-21 13 -42 20q-12 4 -7 16q1 5 5.5 7t9.5 0q28 -10 48 -22q10 -8 4 -18q-5 -5 -11 -5q-4 0 -7 2zM144 385q-5 10 3 17q18 14 46 26q10 5 16 -7 q4 -13 -6 -16q-27 -13 -41 -23q-6 -2 -8 -2q-5 0 -10 5zM359 464q-9 9 -1 18q18 18 25 37q2 5 7 7t9 0q5 -2 7 -7t0 -9q-10 -25 -30 -46q-4 -4 -8 -4q-3 0 -9 4zM401 53q-6 10 3 18q20 18 31 33q8 8 17 3q5 -3 6 -8.5t-3 -9.5q-17 -22 -36 -38q-1 0 -3.5 -1.5t-4.5 -1.5 q-5 0 -10 5zM151 505q-11 23 -13 52q0 12 13 14q12 0 12 -12q1 -24 10 -44q4 -13 -6 -16q-2 -1 -5 -1q-8 0 -11 7zM159 595h-5q-10 3 -6 16q9 26 29 46q9 9 17 0q4 -3 4.5 -8.5t-3.5 -9.5q-12 -11 -25 -37q-1 -7 -11 -7zM173 26q-25 14 -44 30q-8 10 -1 17q10 9 18 1 q24 -18 38 -26q12 -6 5 -17q-3 -6 -11 -6q-4 0 -5 1zM85 307q-12 6 -6 17q13 24 29 43q3 4 8.5 4t9.5 -2q10 -9 1 -18q-16 -19 -26 -38q-5 -8 -11 -8q-4 0 -5 2zM357 643q-22 19 -39 23q-11 5 -6 17q4 12 16 7q27 -12 45 -30q8 -8 1 -17q-4 -4 -10 -4t-7 4zM95 96 q-16 21 -25 45q-5 12 6 17q12 3 16 -8q11 -23 23 -41q6 -10 -3 -17q-6 -3 -7 -3q-7 0 -10 7zM475 236q-4 30 -9 46q-5 11 7 15q12 3 16 -8q9 -30 10 -52q0 -12 -12 -12t-12 11z" />
<glyph unicode="9" horiz-adv-x="642" d="M485 377q-11 5 -6 17t14 45q0 6 4.5 9t9.5 1q12 -2 10 -14q-5 -29 -16 -51l-1 -1v-2q4 2 8 1q5 0 8.5 -4t2.5 -10q0 -4 -6 -50q-1 -10 -13 -10h-2q-14 2 -10 14q6 47 6 49q0 4 3 7q-4 -2 -7 -2q-4 0 -5 1zM69 443q-3 15 -3 30q0 18 6 54q4 11 16 8q12 -2 10 -15 q-7 -26 -7 -47q0 -3 3 -27q0 -12 -12 -14h-1q-12 0 -12 11zM107 343q-12 16 -26 48q-4 12 8 17q12 4 16 -8q13 -27 23 -42q8 -12 -4 -17q-2 -3 -6 -3q-6 0 -11 5zM96 559q-4 2 -5.5 7.5t0.5 9.5q14 27 29 44q8 11 19 2q8 -6 2 -18q-17 -17 -27 -39q-4 -7 -11 -7q-4 0 -7 1z M186 273q-26 16 -44 31q-8 8 0 18q3 4 8.5 4.5t9.5 -3.5q20 -18 39 -27q9 -8 5 -18q-6 -6 -11 -6q-4 0 -7 1zM290 247q-31 0 -53 7q-13 3 -10 16q4 11 16 8q30 -6 47 -6q5 0 9 -4t4 -9q0 -12 -13 -12zM420 300q-8 9 2 19q17 13 33 34q6 10 17 3q10 -10 3 -18 q-14 -21 -37 -39q-3 -3 -7 -3q-7 0 -11 4zM248 682q-2 13 10 15q18 3 35 3q4 0 10.5 -0.5t9.5 -0.5q11 0 11 -14q-2 -12 -14 -12q-6 2 -17 2q-1 0 -31 -3h-1q-10 0 -13 10zM400 644q-22 13 -43 21q-11 2 -9 15q5 11 17 9q36 -16 48 -23q10 -6 4 -18q-3 -6 -10 -6q-5 0 -7 2z M466 577q-13 21 -29 37q-10 10 0 18q9 9 18 0q22 -24 33 -42q5 -11 -4 -18q-3 -1 -7 -1q-6 0 -11 6zM494 487q0 21 -9 46q-2 12 9 16q4 2 9 0t7 -7q7 -27 9 -53q2 -12 -11 -14h-1q-11 0 -13 12zM420 122q-10 8 -3 17l25 42q4 12 16 6q11 -5 7 -17q-15 -27 -28 -45 q-2 -5 -10 -5q-5 0 -7 2zM328 262q-2 4 1 9t8 6q14 3 45 15q12 7 17 -5q4 -12 -6 -17q-24 -12 -50 -18h-4q-9 0 -11 10zM469 210q-11 5 -7 17q9 26 14 46q5 13 17 9q4 -1 7 -5.5t1 -9.5q-12 -38 -16 -49q-2 -9 -11 -9q-1 0 -2.5 0.5t-2.5 0.5zM346 53q-8 11 4 18 q21 16 36 32q9 9 18 0q8 -10 0 -18q-22 -22 -41 -34q-1 -3 -6 -3q-9 0 -11 5zM157 639q-6 11 4 18q24 17 47 25q5 3 9.5 1t6.5 -7q5 -11 -7 -17q-22 -8 -42 -22q-1 -3 -8 -3q-6 0 -10 5zM252 18q-2 11 10 14q19 3 46 15q5 3 9.5 1t6.5 -7q5 -12 -6 -17q-40 -14 -51 -16h-2 q-12 0 -13 10zM198 13q0 12 12 12h4q4 1 8.5 -2.5t4.5 -8.5q2 -12 -12 -14h-5q-10 0 -12 13z" />
<glyph unicode=":" horiz-adv-x="240" d="M137 392q0 -10 -7 -17.5t-17 -7.5t-18 7.5t-8 17.5t7.5 17.5t18.5 7.5q10 0 17 -7.5t7 -17.5zM137 26q0 -10 -7 -17t-17 -7q-11 0 -18.5 7t-7.5 17t7.5 18t18.5 8q10 0 17 -7.5t7 -18.5z" />
<glyph unicode=";" horiz-adv-x="240" d="M109 392q0 -10 -7 -17.5t-17 -7.5t-18 7.5t-8 17.5t7.5 17.5t18.5 7.5q10 0 17 -7.5t7 -17.5zM62 -27q-3 5 5 9q18 5 23 20h-5q-11 0 -18.5 7t-7.5 17t7.5 18t18.5 8q18 0 23 -18q0 -2 1 -2v-3v-3v-4q0 -45 -38 -55h-3q-6 0 -6 6z" />
<glyph unicode="&#x37e;" horiz-adv-x="240" d="M109 392q0 -10 -7 -17.5t-17 -7.5t-18 7.5t-8 17.5t7.5 17.5t18.5 7.5q10 0 17 -7.5t7 -17.5zM62 -27q-3 5 5 9q18 5 23 20h-5q-11 0 -18.5 7t-7.5 17t7.5 18t18.5 8q18 0 23 -18q0 -2 1 -2v-3v-3v-4q0 -45 -38 -55h-3q-6 0 -6 6z" />
<glyph unicode="&#x3c;" horiz-adv-x="620" d="M66 377q-10 11 0 21l42 43q13 8 21 0q10 -12 0 -22l-42 -42q-5 -5 -11 -5q-5 0 -10 5zM149 462q-7 10 0 21l44 41q3 4 9 4t11 -4q5 -3 5 -9.5t-5 -11.5l-41 -41q-5 -5 -12 -5q-6 0 -11 5zM234 547q-4 3 -4 9t4 11l42 42q10 11 21 0t0 -21l-42 -41q-5 -5 -10 -5 q-6 0 -11 5zM318 630q-11 11 0 22l41 42q5 4 11.5 4t9.5 -4q10 -10 2 -21l-43 -43q-4 -4 -11 -4q-6 0 -10 4zM359 4l-41 44q-4 3 -4 9.5t4 11.5q10 9 21 0l43 -44q8 -11 -2 -21q-1 -4 -10 -4q-7 0 -11 4zM276 89l-42 42q-11 11 0 21q10 10 21 0l42 -42q11 -10 0 -21 q-4 -4 -11 -4q-6 0 -10 4zM193 174l-44 42q-7 10 0 21q11 11 23 0l41 -42q11 -11 0 -21q-4 -4 -10 -4t-10 4zM108 258l-42 43q-10 11 0 21t21 0l42 -42q9 -11 0 -22q-5 -3 -11 -3t-10 3z" />
<glyph unicode="=" horiz-adv-x="620" d="M379 235q-5 0 -9 4t-4 9q0 13 13 13h52q13 0 13 -13t-13 -13h-52zM274 235q-4 0 -8 4t-4 9q0 13 12 13h52q14 0 14 -13q0 -5 -4 -9t-10 -4h-52zM170 235q-4 0 -8.5 4.5t-4.5 8.5q0 13 13 13h52q13 0 13 -13t-13 -13h-52zM92 235q-4 0 -8.5 4.5t-4.5 8.5q0 13 13 13h26 q13 0 13 -13t-13 -13h-26zM379 440q-13 0 -13 12q0 5 4 9.5t9 4.5h52q13 0 13 -14q0 -12 -13 -12h-52zM274 440q-12 0 -12 12q0 5 4 9.5t8 4.5h52q6 0 10 -4.5t4 -9.5q0 -12 -14 -12h-52zM170 440q-13 0 -13 12q0 5 4 9.5t9 4.5h52q13 0 13 -14q0 -12 -13 -12h-52zM92 440 q-13 0 -13 12q0 5 4 9.5t9 4.5h26q13 0 13 -14q0 -12 -13 -12h-26z" />
<glyph unicode="&#x3e;" horiz-adv-x="620" d="M93 4q-7 10 0 21l44 44q3 4 9.5 4t11.5 -4q10 -13 0 -21l-42 -44q-4 -4 -11 -4q-8 0 -12 4zM178 89q-10 11 0 21l42 42q10 10 21 0t0 -21l-42 -42q-4 -4 -10 -4q-7 0 -11 4zM262 174q-10 10 0 21l41 42q5 5 11.5 5t9.5 -5q10 -10 2 -21l-43 -42q-4 -4 -11 -4q-6 0 -10 4z M347 258q-10 10 -2 22l43 42q10 10 21 0t0 -21l-41 -43q-4 -3 -11 -3t-10 3zM388 377l-43 42q-9 11 2 22q6 10 21 0l41 -43q11 -10 0 -21q-5 -5 -10 -5q-6 0 -11 5zM303 462l-41 41q-10 11 0 21t21 0l43 -41q8 -11 -2 -21q-2 -5 -10 -5q-6 0 -11 5zM220 547l-42 41 q-10 10 0 21t21 0l42 -42q5 -5 5 -11t-5 -9q-5 -5 -11 -5q-5 0 -10 5zM137 630l-44 43q-7 11 0 21q5 4 12 4t11 -4l42 -43q10 -10 0 -21q-4 -4 -11 -4q-6 0 -10 4z" />
<glyph unicode="?" horiz-adv-x="534" d="M212 237v49q0 12 12 12h2l2 -1q4 4 9 5q29 4 45 9q11 4 15 -7q2 -4 -0.5 -9t-7.5 -7q-21 -7 -50 -10h-1h-2v-41q0 -12 -12 -12t-12 12zM423 467q-13 3 -13 14v8q0 18 -3 36q-2 13 10 15t14 -10q4 -26 4 -41v-9q0 -5 -3.5 -9t-8.5 -4zM390 378q-10 7 -5 16q9 17 18 42 q2 11 15 9q13 -5 8 -16q-7 -25 -20 -47q-4 -6 -10 -6q-4 0 -6 2zM392 569q-10 21 -24 38q-5 9 3 17q9 8 17 -2q17 -23 27 -44q6 -11 -6 -15q-2 -2 -6 -2q-6 0 -11 8zM256 673h-2q-15 3 -30 3h-15q-13 -2 -13 11q0 11 11 13h17q13 0 33 -2q14 -4 11 -15q-2 -10 -12 -10z M107 651q-6 9 3 16q21 14 47 22q5 2 9.5 0t5.5 -7q4 -11 -7 -16q-22 -7 -41 -19q-3 -1 -6 -1q-8 0 -11 5zM319 313q-7 11 4 17q24 16 34 29q9 9 17 0q8 -8 2 -17q-18 -18 -40 -32q-3 -2 -7 -2q-7 0 -10 5zM45 578q-11 7 -4 17q9 18 31 41q8 9 17 0q9 -8 0 -17 q-10 -10 -28 -36q-2 -6 -10 -6q-4 0 -6 1zM337 639q-22 15 -40 22q-10 5 -6 16q6 11 16 6q16 -7 44 -25q8 -8 3 -17q-4 -5 -10 -5t-7 3zM212 157v32q0 12 12 12q4 0 8 -3.5t4 -8.5v-32q0 -12 -12 -12t-12 12zM212 12v23q0 12 12 12t12 -12v-23q0 -4 -4 -8t-8 -4 q-12 0 -12 12z" />
<glyph unicode="@" horiz-adv-x="980" d="M549 272v16q-10 5 -6 15q6 21 6 46v15q0 11 12 14q4 0 8.5 -3.5t4.5 -7.5q1 -7 1 -18q0 -14 -1 -21q1 -1 1 -6v-50q0 -12 -14 -12q-12 0 -12 12zM492 208q-9 8 0 17q19 17 30 35q3 4 9 5.5t9 -1.5q11 -6 5 -19q-15 -22 -36 -39q-5 -3 -9 -3q-8 0 -8 5zM670 533 q-17 26 -31 38q-3 4 -3 10t3 8q10 10 20 0l33 -40q8 -11 -4 -18q-2 -2 -7 -2t-11 4zM518 653q-22 9 -46 13q-13 2 -11 15q4 15 17 9q15 -1 51 -15q5 -1 7 -6t0 -9q-6 -8 -14 -8q0 1 -4 1zM395 179q0 14 12 14q27 2 45 10q12 2 17 -7q3 -14 -9 -18q-24 -9 -53 -11 q-12 0 -12 12zM582 122q-10 8 -4 20q2 4 7 5.5t8 -1.5q6 -3 17 -3h13q2 3 10 3q12 6 16 -7q5 -12 -7 -17q-6 -4 -13 -4q-6 -1 -19 -1q-18 0 -28 5zM713 447q-5 16 -17 45q-3 4 -1.5 9.5t5.5 7.5q11 4 18 -6q13 -29 19 -49q4 -13 -9 -15h-3q-11 0 -12 8zM179 602q-8 8 2 18 q28 23 43 30q13 5 17 -5q8 -8 -5 -17q-17 -10 -37 -28q-1 0 -4.5 -2t-5.5 -2q-6 0 -10 6zM670 153q-10 8 0 18t16 22l7 7q3 6 3 8q5 12 17 7q13 -5 5 -16q0 -1 -4 -11l-8 -12q-7 -12 -18 -23q-3 -3 -10 -3q-4 0 -8 3zM232 341q-1 2 -1 8q0 19 7 44q0 6 4.5 9.5t10.5 1.5 q13 -4 8 -15q0 -4 -2 -18.5t-2 -21.5q0 -4 1 -7q0 -12 -12 -14q-6 0 -10 4t-4 9zM118 146q-16 23 -26 45q-5 13 5 17q10 7 17 -5q11 -24 25 -42q8 -10 -2 -18q-1 0 -4 -0.5t-5 -0.5q-6 0 -10 4zM192 71q-18 12 -41 35q-7 7 0 18q11 7 20 -2q11 -12 35 -30q13 -11 2 -18 q-3 -6 -9 -6q-5 0 -7 3zM357 175h-4q-24 8 -47 25q-10 10 -3 18q7 10 18 3q22 -16 40 -21q5 -1 8 -6.5t1 -9.5q-3 -9 -13 -9zM284 20l-49 22q-11 6 -4 18q5 8 18 5q22 -15 43 -21q14 -5 6 -15q0 -11 -10 -11q-2 0 -3 1zM54 342q-1 3 -1 7q0 24 4 47q2 10 14 10q11 0 11 -14 q-4 -19 -4 -43q0 -4 1 -6q0 -12 -12 -12q-13 0 -13 11zM114 525q-10 6 -3 15q16 26 32 43q10 8 18 2q10 -10 0 -19q-2 -3 -12.5 -17t-16.5 -21q-6 -6 -11 -6q-2 0 -3 1q-2 2 -4 2zM79 431h-4q-11 3 -8 15q6 26 19 50q5 10 15 6q12 -5 7 -16q-10 -24 -16 -47q-3 -8 -13 -8z M268 426h-7q-7 8 -3 19q20 31 34 41q11 11 18 0q10 -10 -2 -18q-20 -22 -29 -36q-4 -6 -11 -6zM363 684q-3 10 11 15q5 0 14.5 0.5t14.5 0.5t12 -0.5t10 -0.5q5 0 9 -4.5t2 -8.5q0 -13 -11 -13q-7 1 -22 1q-5 0 -14 -0.5t-14 -0.5q-12 0 -12 11zM265 656q-6 11 6 17 q30 12 51 17q12 0 14 -10q4 -14 -9 -14q-3 -1 -20.5 -6.5t-25.5 -9.5q-2 -1 -6 -1q-10 0 -10 7zM267 239q-13 19 -26 49q0 15 10 16q5 2 9.5 -0.5t4.5 -8.5q10 -28 23 -39q5 -10 -3 -20q-3 -1 -8 -1q-7 0 -10 4zM386 0q-21 0 -51 6q-14 4 -11 14q2 14 15 10q7 0 23.5 -2.5 t25.5 -2.5q9 -2 9 -14q0 -11 -11 -11zM425 13q0 12 10 12l23 4t25 6q13 2 16 -10q2 -5 -1 -9.5t-9 -5.5q-17 -5 -50 -9l-3 -1q-4 0 -7.5 4t-3.5 9zM604 604q-10 8 -41 29q-5 2 -6.5 6.5t2.5 9.5q3 11 16 4q26 -12 43 -29q11 -8 3 -18q-4 -4 -10 -4q-3 0 -7 2zM539 409 q-7 19 -25 40q-8 9 2 19q13 8 19 -4q16 -20 26 -46q6 -12 -7 -16h-5q-9 0 -10 7zM723 239q-5 2 -8 7.5t-1 9.5q9 32 10 47q2 12 15 10q5 0 8.5 -4.5t1.5 -9.5q-2 -19 -10 -52q-4 -9 -12 -9q-3 0 -4 1zM71 239q-8 24 -13 50q-2 14 10 17q13 2 15 -11q3 -16 11 -48q2 -5 0 -10 t-7 -5q-1 -1 -4 -1q-10 0 -12 8zM482 482q-17 11 -43 18q-12 3 -10 16q7 14 16 9q15 -3 50 -23q10 -7 4 -16q-5 -7 -11 -7q-3 0 -6 3zM728 350q0 28 -4 49q-1 10 10 16q6 1 10.5 -3t4.5 -10q4 -16 4 -52q0 -11 -11 -11q-14 0 -14 11zM332 500q-6 10 6 16q29 13 54 13 q4 1 7.5 -2.5t3.5 -8.5q1 -10 -11 -14q-20 -1 -44 -11h-6q-10 0 -10 7zM549 175v47q0 13 12 13q5 0 9.5 -4t4.5 -9v-44q2 -12 -11 -14h-3q-10 0 -12 11z" />
<glyph unicode="A" horiz-adv-x="646" d="M495 188h-51q-12 0 -12 13q0 5 4 9t8 4h43l-11 31q-5 11 7 17q11 3 17 -8l17 -48q2 -4 0 -9t-7 -7h-5h-3q-2 -2 -7 -2zM191 188h-50q-7 0 -10 4q-6 6 -3 14l18 48q5 11 16 8q10 -4 8 -17l-13 -31h34q13 0 13 -13t-13 -13zM394 188h-51q-13 0 -13 13q0 5 4 9t9 4h51 q12 0 12 -13t-12 -13zM293 188h-51q-13 0 -13 13q0 5 4.5 9t8.5 4h51q12 0 12 -13t-12 -13zM175 284h-4q-12 6 -7 17l17 48q6 12 17 7q5 -2 7 -7t0 -9l-17 -48q-5 -8 -13 -8zM529 102l-18 48q-3 12 8 17q13 4 16 -8l18 -48q3 -10 -8 -15q-1 -1 -5 -1q-8 0 -11 7zM277 569 q-5 2 -7 7t0 9l17 47q5 13 17 7q12 -4 7 -16l-17 -47q-5 -9 -12 -9q-1 0 -2.5 1t-2.5 1zM351 576l-18 47q-5 12 8 16q11 5 16 -7l18 -47q4 -12 -8 -16l-1 -1q-2 -1 -3 -1q-8 0 -12 9zM246 474h-4q-12 4 -8 16l18 47q4 12 17 8q11 -6 7 -17l-18 -47q-3 -7 -12 -7zM458 292 l-18 48q-4 13 8 16q4 2 9 0t6 -7l19 -48q2 -13 -8 -17h-5q-9 0 -11 8zM564 9l-17 47q-5 10 7 16q11 6 17 -8l17 -46q4 -11 -7 -17q-2 -1 -4 -1q-8 0 -13 9zM210 379h-3q-12 5 -8 16l18 49q3 10 16 6q4 -1 7 -5.5t1 -9.5l-18 -48q-3 -8 -13 -8zM64 1q-10 5 -8 17l19 46 q1 5 5.5 7.5t9.5 0.5q12 -4 8 -16l-18 -47q-2 -9 -11 -9q-4 0 -5 1zM99 96q-11 5 -6 15l18 48q3 11 16 8q11 -5 6 -17l-17 -48q-3 -7 -12 -7q-2 0 -5 1zM387 481l-17 47q-4 12 6 17q13 3 16 -7l18 -48q6 -12 -8 -16h-3q-9 0 -12 7zM423 387l-18 48q-2 4 0 9t6 6q12 3 17 -6 l17 -49q5 -10 -6 -16h-5q-9 0 -11 8zM313 663q-11 5 -8 17l4 10q2 10 13 8q8 2 14 -8l3 -10q5 -11 -7 -17q-1 0 -2 -1h-2q-4 0 -6 1q-1 -1 -4 -1h-2q-2 1 -3 1z" />
<glyph unicode="B" horiz-adv-x="594" d="M398 356h-4q-22 8 -45 8q-13 0 -13 13q0 12 13 12h10q-6 0 -9 5q-6 10 4 18q21 13 35 32q8 10 18 1q4 -3 4.5 -8.5t-3.5 -9.5q-15 -20 -40 -36q-2 -2 -7 -2h-2q27 -2 43 -9q12 -2 8 -15q-3 -9 -12 -9zM104 28v51q0 12 13 12q12 0 12 -12v-51q0 -2 -1 -3h41q12 0 12 -12 q0 -13 -12 -13h-50q-12 0 -12 13q0 3 1 5q-4 3 -4 10zM104 637v50q0 13 13 13h2h51q13 0 13 -13q0 -12 -13 -12h-41v-38q0 -5 -3.5 -9t-8.5 -4q-13 0 -13 13zM278 365h-14q-13 0 -13 13q0 5 4 9t9 4h14q18 0 34 3q13 4 15 -10q2 -10 -9 -15q-16 -4 -40 -4zM213 365h-51 q-12 0 -12 13q0 5 4 9t8 4h51q13 0 13 -13t-13 -13zM492 211q-1 21 -8 46q-3 12 8 16q12 3 17 -9q6 -21 8 -52q0 -12 -11 -14h-1q-13 0 -13 13zM360 649q-17 11 -42 21q-5 1 -7.5 5.5t-1.5 9.5q5 11 16 9q26 -8 49 -24q11 -7 4 -18q-4 -5 -12 -5q-5 0 -6 2zM465 301 q-14 21 -30 34q-8 7 -3 18q9 9 18 2q23 -18 37 -42q3 -4 1.5 -9t-6.5 -7q-2 -3 -6 -3q-6 0 -11 7zM407 32q-7 10 4 17q24 15 37 31q8 8 17 0q8 -8 2 -18q-22 -22 -42 -34q-3 -1 -8 -1q-6 0 -10 5zM104 535v51q0 13 13 13q5 0 8.5 -4t3.5 -9v-51q0 -5 -4 -9t-8 -4 q-13 0 -13 13zM413 574q-4 20 -20 42q-6 11 3 18q4 3 9.5 2.5t7.5 -4.5q16 -24 25 -50q4 -11 -8 -15l-2 -1h-2q-8 0 -13 8zM308 13q0 4 4 8t9 4h2q22 0 45 5q12 5 16 -8q3 -11 -9 -16q-32 -6 -52 -6h-2q-13 0 -13 13zM479 101q-9 5 -5 17q11 19 16 44q2 13 15 10 q12 -2 10 -15q-6 -25 -18 -50q-3 -7 -11 -7q-4 0 -7 1zM104 231v51q0 12 13 12q12 0 12 -12v-51q0 -5 -3.5 -9t-8.5 -4q-13 0 -13 13zM270 0h-51q-12 0 -12 13q0 5 3.5 8.5t8.5 3.5h51q13 0 13 -12q0 -13 -13 -13zM104 129v51q0 13 13 13q12 0 12 -13v-51q0 -5 -3.5 -8.5 t-8.5 -3.5q-13 0 -13 12zM104 332v51q0 13 13 13q12 0 12 -13v-51q0 -4 -3.5 -8t-8.5 -4q-13 0 -13 12zM271 675h-50q-5 0 -9 3.5t-4 8.5q0 13 13 13h50q13 0 13 -13q0 -12 -13 -12zM104 434v50q0 13 13 13q12 0 12 -13v-50q0 -5 -3.5 -9t-8.5 -4q-13 0 -13 13zM420 468 q-12 2 -8 15q8 24 8 46q2 12 14 12q5 0 8.5 -4t2.5 -8q0 -25 -10 -55q-1 -7 -11 -7q-3 0 -4 1z" />
<glyph unicode="C" horiz-adv-x="771" d="M414 0q-12 0 -12 14q2 11 14 11h20q20 0 29 2q14 0 14 -13q1 -5 -2.5 -9t-9.5 -4q-10 -1 -31 -1h-22zM363 8q-26 3 -51 14q-13 4 -8 15q5 12 16 7l48 -12q12 -4 8 -16q-2 -10 -10 -10q-3 0 -3 2zM504 18q-2 13 9 15q25 6 48 15q4 2 9 0t7 -7q5 -12 -6 -17q-24 -9 -51 -15 h-2q-12 0 -14 9zM262 43q-26 13 -45 28q-8 7 -3 20q7 9 18 2q20 -17 42 -28q5 -2 6.5 -7.5t-1.5 -9.5q-1 -7 -10 -7q-3 0 -7 2zM601 51q-4 13 6 17q20 13 41 29v0q10 9 18 -1q8 -12 -3 -19q-18 -17 -43 -30q-1 0 -3 -1.5t-3 -1.5q-8 0 -13 7zM176 107l-36 40q-8 10 3 17 q13 7 18 -2q4 -5 11 -12.5l12.5 -13.5l10.5 -11q11 -9 0 -18q-4 -4 -8 -4q-5 0 -11 4zM112 192q-15 32 -20 49q-6 11 8 17q13 2 15 -8q3 -9 20 -47q6 -12 -5 -16q-2 -1 -6 -1q-8 0 -12 6zM78 293q-5 43 -5 51q0 12 11 14q12 0 14 -13q0 -24 5 -47q3 -13 -10 -15h-2 q-11 0 -13 10zM86 384q-5 0 -8.5 4.5t-1.5 9.5q1 20 10 52q4 13 15 9q12 -3 9 -17q-8 -30 -9 -48q-2 -11 -13 -11q-1 0 -2 1zM110 483q-11 3 -7 16q14 30 27 48q7 10 19 4q9 -7 2 -18q-13 -20 -23 -44v0q-4 -7 -12 -7q-4 0 -6 1zM165 571q-11 9 -1 18q17 18 38 38 q11 7 18 -3q8 -9 -2 -19q-20 -17 -35 -33v0q-5 -3 -9 -3q-6 0 -9 2zM649 612q-7 4 -15 12q-10 7 -4 18q9 9 18 2q6 -3 16 -11q10 -10 3 -19q-4 -5 -10 -5q-7 0 -8 3zM240 639q-5 11 5 18q26 15 48 25q13 6 17 -8q5 -12 -7 -17q-18 -7 -44 -22q-4 -2 -7 -2q-9 0 -12 6z M590 648q-21 11 -46 19q-12 6 -7 16q1 6 5.5 8.5t9.5 0.5q28 -9 50 -21q12 -5 7 -17q-4 -7 -14 -7q-1 0 -3 1h-2zM334 683q-3 10 10 16q42 7 51 8q12 3 14 -11q0 -12 -11 -14q-26 -2 -47 -10h-4q-9 0 -13 11zM496 680q-40 5 -49 5q-5 0 -9 4t-3 8q0 13 13 13q12 0 52 -5 q14 -2 10 -15q-1 -10 -12 -10h-2z" />
<glyph unicode="D" horiz-adv-x="719" d="M104 637v50q0 11 11 13h2h2h48q13 0 13 -13q0 -12 -13 -12h-38v-38q0 -5 -3.5 -9t-8.5 -4q-13 0 -13 13zM128 0h-11q-13 0 -13 13q0 4 3 7q-3 5 -3 8v51q0 12 13 12q12 0 12 -12v-51q0 -2 -1 -3q13 -2 13 -12q0 -13 -13 -13zM449 607q-13 11 -41 27q-11 7 -5 18q6 9 18 5 q15 -9 43 -29q5 -3 6 -8.5t-3 -9.5q-4 -5 -10 -5q-4 0 -8 2zM268 13q-3 10 11 14q28 2 48 7q13 4 15 -10q2 -5 -1 -9.5t-7 -5.5q-18 -4 -52 -8h-2q-12 0 -12 12zM366 32q-4 13 7 16q30 14 44 22q11 6 18 -4q5 -11 -5 -18q-15 -9 -47 -23q-1 -1 -5 -1q-7 0 -12 8zM576 355 q0 18 -4 48q-2 13 10 15q13 3 15 -11q4 -21 4 -52q1 -4 -2.5 -8.5t-8.5 -4.5h-2q-10 0 -12 13zM455 80q-9 11 2 18q30 27 35 34q9 9 18 1q10 -9 1 -18q-13 -16 -38 -36q-3 -3 -8 -3q-6 0 -10 4zM561 450q-10 29 -20 46q-4 13 7 16q12 8 16 -5q15 -29 21 -48q3 -13 -9 -16h-4 q-10 0 -11 7zM526 152q-11 7 -4 18q12 19 25 43q4 12 16 6t6 -17q-7 -16 -25 -46q-4 -5 -11 -5q-5 0 -7 1zM576 242h-4q-11 5 -9 17q7 20 10 47q2 13 14 11q14 -2 12 -14q-4 -26 -12 -52q-2 -9 -11 -9zM368 654h-4q-13 6 -47 14q-12 4 -10 16q1 5 6 7.5t9 0.5q23 -3 51 -14 q5 -2 7 -7t0 -9q-3 -8 -12 -8zM516 538l-30 38q-8 8 0 17q7 9 17 -1q21 -19 35 -39q6 -11 -4 -18q-1 -2 -6 -2q-8 0 -12 5zM269 675h-51q-5 0 -9 4t-4 8q0 13 13 13h52q13 -2 12 -14q0 -11 -13 -11zM104 535v51q0 13 13 13q5 0 8.5 -4t3.5 -9v-51q0 -5 -4 -9t-8 -4 q-13 0 -13 13zM104 231v51q0 12 13 12q12 0 12 -12v-51q0 -5 -3.5 -9t-8.5 -4q-13 0 -13 13zM230 0h-51q-13 0 -13 13q0 12 13 12h51q4 0 8 -3.5t4 -8.5q0 -13 -12 -13zM104 332v51q0 13 13 13q12 0 12 -13v-51q0 -4 -3.5 -8t-8.5 -4q-13 0 -13 12zM104 129v51q0 13 13 13 q12 0 12 -13v-51q0 -5 -3.5 -8.5t-8.5 -3.5q-13 0 -13 12zM104 434v50q0 13 13 13q12 0 12 -13v-50q0 -5 -3.5 -9t-8.5 -4q-13 0 -13 13z" />
<glyph unicode="E" horiz-adv-x="593" d="M170 0h-51q-12 0 -12 13q0 4 1 5q-4 4 -4 10v51q0 12 13 12q12 0 12 -12v-51l-1 -1v-2h42q13 0 13 -12q0 -13 -13 -13zM104 332v51q0 13 13 13q12 0 12 -13v-20h41q13 0 13 -13t-13 -13h-41v-5q0 -12 -12 -12q-5 0 -9 3.5t-4 8.5zM104 637v50q0 13 13 13h2h51 q13 0 13 -13q0 -12 -13 -12h-41v-38q0 -13 -12 -13q-13 0 -13 13zM373 337h-51q-13 0 -13 13q0 4 4.5 8.5t8.5 4.5h51q5 0 9 -4t4 -9q0 -13 -13 -13zM271 337h-50q-13 0 -13 13q0 5 4 9t9 4h50q13 0 13 -13t-13 -13zM104 535v51q0 13 13 13q12 0 12 -13v-51q0 -13 -12 -13 q-5 0 -9 4t-4 9zM373 0h-51q-13 0 -13 13q0 4 4 8t9 4h51q5 0 9 -3.5t4 -8.5q0 -13 -13 -13zM373 675h-51q-5 0 -9 4t-4 8q0 13 13 13h51q13 0 13 -13q0 -5 -4 -8.5t-9 -3.5zM104 231v51q0 12 13 12q12 0 12 -12v-51q0 -13 -12 -13q-13 0 -13 13zM104 129v51q0 13 13 13 q12 0 12 -13v-51q0 -12 -12 -12q-5 0 -9 3.5t-4 8.5zM104 434v50q0 13 13 13q12 0 12 -13v-50q0 -13 -12 -13q-13 0 -13 13zM271 675h-50q-5 0 -9 3.5t-4 8.5q0 13 13 13h50q13 0 13 -13q0 -12 -13 -12zM474 675h-50q-5 0 -9 3.5t-4 8.5q0 13 13 13h50q13 0 13 -13 q0 -12 -13 -12zM474 0h-50q-13 0 -13 13q0 5 4 8.5t9 3.5h50q13 0 13 -12q0 -13 -13 -13zM271 0h-50q-13 0 -13 13q0 5 4 8.5t9 3.5h50q13 0 13 -12q0 -13 -13 -13zM448 337h-24q-13 0 -13 13q0 5 4 9t9 4h24q12 0 12 -13t-12 -13z" />
<glyph unicode="F" horiz-adv-x="605" d="M104 635v52q0 13 13 13h3h51q13 0 13 -13t-13 -13h-41v-39q0 -13 -13 -13q-5 0 -9 4t-4 9zM104 324v52q0 13 13 13t13 -13v-21h41q13 0 13 -13t-13 -13h-41v-5q0 -13 -13 -13q-5 0 -9 4t-4 9zM379 329h-52q-13 0 -13 13t13 13h52q13 0 13 -13t-13 -13zM275 329h-52 q-13 0 -13 13t13 13h52q13 0 13 -13t-13 -13zM104 13v52q0 13 13 13t13 -13v-52q0 -13 -13 -13t-13 13zM275 674h-52q-13 0 -13 13t13 13h52q13 0 13 -13t-13 -13zM379 674h-52q-13 0 -13 13t13 13h52q13 0 13 -13t-13 -13zM104 428v52q0 13 13 13t13 -13v-52q0 -13 -13 -13 t-13 13zM104 220v52q0 13 13 13t13 -13v-52q0 -13 -13 -13q-5 0 -9 4t-4 9zM104 117v52q0 12 13 12t13 -12v-52q0 -13 -13 -13t-13 13zM104 531v52q0 13 13 13t13 -13v-52q0 -12 -13 -12q-5 0 -9 3.5t-4 8.5zM483 674h-52q-13 0 -13 13t13 13h52q12 0 12 -13t-12 -13z M455 329h-24q-13 0 -13 13t13 13h24q13 0 13 -13t-13 -13z" />
<glyph unicode="G" horiz-adv-x="814" d="M602 52q-6 12 6 17q34 22 36 23v42q0 5 4 9t9 4q12 0 12 -13v-46v-3q-1 -4 -5 -8q-20 -16 -45 -29q-3 -3 -6 -3q-6 0 -11 7zM644 288v38h-7q-13 0 -13 13q0 5 4 8.5t9 3.5h17h2h1q12 0 12 -12v-51q0 -13 -12 -13q-13 0 -13 13zM242 639q-7 10 4 18q15 9 47 24 q5 2 10.5 -0.5t6.5 -7.5q5 -11 -7 -16q-21 -8 -43 -22q-6 -2 -8 -2q-5 0 -10 6zM334 682q-1 10 9 17q42 7 52 8q12 4 14 -12q1 -4 -2.5 -8.5t-8.5 -5.5q-24 -1 -48 -9h-3q-10 0 -13 10zM365 6h-3q-29 7 -50 16q-14 2 -9 16q7 12 17 7l23.5 -6t23.5 -7q13 -4 11 -16 q-4 -10 -13 -10zM591 648q-19 11 -47 19q-5 1 -7 6t0 9q3 13 16 9q34 -12 49 -20q11 -5 7 -17q-4 -7 -12 -7q-3 0 -6 1zM112 483q-13 4 -7 17q13 28 26 46q7 10 18 4q10 -6 4 -18q-17 -25 -24 -43q-4 -7 -12 -7q-4 0 -5 1zM262 43q-34 21 -45 29q-8 6 -3 18q8 10 18 2 q24 -17 43 -26q11 -7 5 -17q-3 -7 -11 -7q-1 0 -3 0.5t-4 0.5zM164 571q-9 9 -1 18l39 37q12 6 18 -3q7 -7 -2 -18q-20 -17 -35 -33q-7 -5 -9 -5q-4 0 -10 4zM504 18q-2 12 11 16q23 5 47 15q4 2 10 0t8 -7q4 -12 -8 -18q-26 -9 -52 -15h-2q-10 0 -14 9zM87 384 q-6 0 -9.5 4.5t-1.5 9.5q2 18 10 52q4 13 16 9q12 -3 10 -16q-10 -32 -11 -49q-2 -11 -13 -11q-1 0 -1 1zM78 292q-5 40 -5 52t13 14q4 0 8 -4t4 -9q0 -11 5 -48q3 -13 -10 -15h-2q-11 0 -13 10zM178 107q-14 12 -36 40q-4 4 -3 9.5t6 7.5q9 9 18 -2q11 -16 32 -37 q11 -9 0 -18q-4 -4 -8 -4q-5 0 -9 4zM499 679h-3q-37 5 -48 5q-5 0 -9 3.5t-4 8.5q0 14 13 14q12 0 52 -5q15 -2 13 -16q-3 -10 -14 -10zM483 326h-52q-13 0 -13 13q0 5 4 8.5t9 3.5h52q12 0 12 -12q0 -13 -12 -13zM586 326h-52q-12 0 -12 13q0 5 4 8.5t8 3.5h52 q13 0 13 -12q0 -13 -13 -13zM644 186v51q0 13 13 13q12 0 12 -13v-51q0 -13 -12 -13q-13 0 -13 13zM436 0h-22q-5 0 -8.5 4t-2.5 10q0 11 13 11h50q5 2 9 -1.5t5 -9.5q0 -13 -13 -13q-9 -1 -31 -1zM115 192q-12 18 -23 49q-6 11 8 17q14 2 17 -9q4 -11 19 -46q3 -5 1.5 -9.5 t-6.5 -6.5q-1 -1 -6 -1q-9 0 -10 6zM649 612q-3 2 -8.5 6t-7.5 5q-8 7 -3 19q8 10 19 2q5 -3 15 -11q11 -9 3 -19q-4 -5 -10 -5q-3 0 -8 3z" />
<glyph unicode="H" horiz-adv-x="709" d="M104 324v52q0 13 13 13t13 -13v-21h43q13 0 13 -13t-13 -13h-43v-5q0 -4 -4 -8.5t-9 -4.5q-13 0 -13 13zM537 324v5h-1q-13 0 -13 13t13 13h1v21q0 13 13 13t13 -13v-52q0 -4 -4.5 -8.5t-8.5 -4.5q-13 0 -13 13zM484 329h-52q-13 0 -13 13t13 13h52q13 0 13 -13t-13 -13z M537 13v52q0 13 13 13t13 -13v-52q0 -5 -4 -9t-9 -4q-13 0 -13 13zM104 13v52q0 13 13 13t13 -13v-52q0 -5 -4 -9t-9 -4q-13 0 -13 13zM380 329h-52q-13 0 -13 13q0 5 4 9t9 4h52q13 0 13 -13t-13 -13zM104 428v52q0 13 13 13q5 0 9 -4t4 -9v-52q0 -5 -4 -9t-9 -4 q-13 0 -13 13zM537 428v52q0 13 13 13q5 0 9 -4t4 -9v-52q0 -5 -4 -9t-9 -4q-13 0 -13 13zM537 635v52q0 13 13 13t13 -13v-52q0 -5 -4.5 -9t-8.5 -4q-13 0 -13 13zM537 220v52q0 13 13 13t13 -13v-52q0 -4 -4.5 -8.5t-8.5 -4.5q-13 0 -13 13zM104 220v52q0 13 13 13t13 -13 v-52q0 -4 -4 -8.5t-9 -4.5q-13 0 -13 13zM104 635v52q0 13 13 13t13 -13v-52q0 -5 -4 -9t-9 -4q-13 0 -13 13zM276 329h-51q-13 0 -13 13t13 13h51q13 0 13 -13t-13 -13zM537 117v52q0 12 13 12t13 -12v-52q0 -5 -4 -9t-9 -4q-13 0 -13 13zM537 531v52q0 13 13 13t13 -13 v-52q0 -4 -4 -8t-9 -4q-13 0 -13 12zM104 531v52q0 13 13 13t13 -13v-52q0 -4 -4 -8t-9 -4q-13 0 -13 12zM104 117v52q0 12 13 12t13 -12v-52q0 -5 -4 -9t-9 -4q-13 0 -13 13z" />
<glyph unicode="I" horiz-adv-x="305" d="M111 13v52q0 13 13 13t13 -13v-52q0 -5 -4 -9t-9 -4q-13 0 -13 13zM111 117v52q0 12 13 12t13 -12v-52q0 -5 -4 -9t-9 -4q-13 0 -13 13zM111 220v52q0 13 13 13t13 -13v-52q0 -4 -4.5 -8.5t-8.5 -4.5q-13 0 -13 13zM111 324v52q0 13 13 13t13 -13v-52q0 -4 -4.5 -8.5 t-8.5 -4.5q-13 0 -13 13zM111 428v52q0 13 13 13q5 0 9 -4t4 -9v-52q0 -5 -4 -9t-9 -4q-13 0 -13 13zM111 531v52q0 13 13 13t13 -13v-52q0 -4 -4 -8t-9 -4q-13 0 -13 12zM111 635v52q0 13 13 13t13 -13v-52q0 -5 -4.5 -9t-8.5 -4q-13 0 -13 13z" />
<glyph unicode="J" horiz-adv-x="594" d="M251 0q-24 0 -53 9q-11 2 -9 15q5 11 15 9q26 -8 49 -8q11 0 11 -14q0 -11 -13 -11v0zM289 14q-2 12 10 14q30 7 46 14q11 7 17 -6q4 -12 -7 -17q-24 -12 -51 -15h-2q-10 0 -13 10zM149 29q-23 11 -44 31q-9 9 -1 17q10 10 18 2q17 -17 39 -28q11 -6 5 -18q-3 -6 -11 -6 q-2 0 -6 2zM384 48q-8 11 3 18q18 14 34 33q3 4 8.5 4.5t9.5 -3.5q9 -7 1 -18q-20 -22 -38 -36q-3 -3 -7 -3q-6 0 -11 5zM70 100q-16 22 -25 47q-6 11 6 17q12 3 16 -8q16 -32 23 -42v0q8 -10 -2 -18q-6 -2 -8 -2q-7 0 -10 6zM453 122q-11 8 -5 17q12 28 16 45q4 12 15 9 q12 -4 9 -15q-4 -25 -19 -50q-2 -8 -10 -8q-5 0 -6 2zM482 218q-5 0 -9 4t-4 9v2v49q0 12 13 12t13 -12v-49v-2q0 -13 -13 -13v0zM469 332v51q0 13 13 13t13 -13v-51q0 -12 -13 -12q-5 0 -9 4t-4 8zM469 434v50q0 13 13 13t13 -13v-50q0 -13 -13 -13q-5 0 -9 4t-4 9z M469 535v51q0 5 4 9t9 4q13 0 13 -13v-51q0 -13 -13 -13q-4 0 -8.5 4t-4.5 9zM469 637v50q0 13 13 13t13 -13v-50q0 -13 -13 -13q-5 0 -9 4t-4 9z" />
<glyph unicode="K" horiz-adv-x="715" d="M113 196q-5 5 -3 13q-6 3 -6 11v52q0 13 12 13q13 0 13 -13v-43l22 21q9 9 18 0t0 -18l-36 -36q-4 -4 -11 -4q-5 0 -9 4zM261 342q-9 9 0 18l36 37q9 9 18 0l2 -4q3 -1 6 -4l32 -40q3 -4 2.5 -10t-5.5 -8q-1 -3 -8 -3q-6 0 -10 4l-28 37l-27 -27q-6 -4 -9 -4q-5 0 -9 4z M333 415q-9 9 0 19l37 37q10 9 19 0q6 -10 0 -19l-37 -37q-4 -4 -9 -4q-6 0 -10 4zM596 12l-33 40q-8 10 2 18q9 7 19 -1l32 -40q9 -11 -1 -19q-3 -2 -8 -2q-7 0 -11 4zM554 635q-9 9 0 18l36 38q9 7 18 0q9 -9 0 -20l-36 -36q-6 -4 -9 -4q-5 0 -9 4zM530 92l-32 40 q-8 8 1 18q9 8 18 -1l33 -40q8 -11 -1 -18q-4 -4 -8 -4q-6 0 -11 5zM464 172l-32 41q-8 9 1 18q11 9 18 -3l34 -39q7 -11 -3 -19q-6 -3 -7 -3q-6 0 -11 5zM187 268q-8 10 0 18l36 38q4 4 10 4t8 -4q5 -4 5 -9.5t-5 -8.5l-36 -38q-4 -4 -9 -4q-3 0 -9 4zM480 563q-4 2 -4 8 t4 10l38 36q6 10 18 0q9 -9 0 -18l-38 -36q-4 -4 -9 -4t-9 4zM398 253l-32 39q-9 10 1 18q4 4 9.5 3.5t8.5 -4.5l34 -41q8 -10 -3 -18q-4 -2 -7 -2q-7 0 -11 5zM407 489q-9 9 0 18l37 36q9 9 18 0t0 -18l-37 -36q-3 -4 -9 -4q-5 0 -9 4zM104 13v52q0 13 12 13q13 0 13 -13 v-52q0 -13 -13 -13q-12 0 -12 13zM104 428v52q0 13 12 13q13 0 13 -13v-52q0 -13 -13 -13q-12 0 -12 13zM104 324v52q0 13 12 13q13 0 13 -13v-52q0 -5 -4 -9t-9 -4q-12 0 -12 13zM104 635v52q0 13 12 13q13 0 13 -13v-52q0 -5 -4 -9t-9 -4q-12 0 -12 13zM104 117v52 q0 12 12 12q13 0 13 -12v-52q0 -13 -13 -13q-12 0 -12 13zM104 531v52q0 13 12 13q13 0 13 -13v-52q0 -5 -4 -8.5t-9 -3.5q-12 0 -12 12z" />
<glyph unicode="L" horiz-adv-x="563" d="M170 0h-51q-12 0 -12 13q0 4 1 5q-4 4 -4 10v51q0 12 13 12q12 0 12 -12v-51l-1 -1v-2h42q5 0 9 -4t4 -8q0 -13 -13 -13zM104 535v51q0 13 13 13q12 0 12 -13v-51q0 -13 -12 -13q-5 0 -9 4t-4 9zM373 0h-51q-13 0 -13 13q0 5 4 8.5t9 3.5h51q5 0 9 -4t4 -8q0 -13 -13 -13 zM104 231v51q0 12 13 12q12 0 12 -12v-51q0 -13 -12 -13q-13 0 -13 13zM104 332v51q0 13 13 13q12 0 12 -13v-51q0 -12 -12 -12q-5 0 -9 3.5t-4 8.5zM104 129v51q0 13 13 13q12 0 12 -13v-51q0 -12 -12 -12q-5 0 -9 3.5t-4 8.5zM104 637v50q0 13 13 13q12 0 12 -13v-50 q0 -13 -12 -13q-13 0 -13 13zM104 434v50q0 13 13 13q12 0 12 -13v-50q0 -13 -12 -13q-13 0 -13 13zM271 0h-50q-13 0 -13 13q0 12 13 12h50q5 0 9 -3.5t4 -8.5q0 -13 -13 -13zM474 0h-50q-13 0 -13 13q0 12 13 12h50q5 0 9 -3.5t4 -8.5q0 -13 -13 -13z" />
<glyph unicode="M" horiz-adv-x="844" d="M409 298q-4 1 -6 7q0 -5 -4 -7q-5 -3 -8 -3q-7 0 -10 5l-31 43q-8 10 4 18q10 8 18 -4l30 -41q2 -8 1 -11q-1 4 2 11l32 41q5 11 18 4q9 -9 2 -18l-31 -43q-1 -5 -10 -5q-4 0 -7 3zM139 637l-9 12v-15q0 -13 -13 -13t-13 13v52q0 13 13 13q3 0 4 -1q3 0 9 -4l30 -43 q7 -9 -3 -17q-3 -3 -8 -3t-10 6zM677 634v14l-8 -11q-3 -6 -11 -6q-5 0 -7 3q-10 7 -4 17l31 43q4 4 8 4q1 1 4 1q13 0 13 -13v-52q0 -13 -13 -13q-4 0 -8.5 4.5t-4.5 8.5zM104 13v52q0 13 13 13t13 -13v-52q0 -13 -13 -13t-13 13zM104 220v52q0 13 13 13t13 -13v-52 q0 -13 -13 -13t-13 13zM104 427v52q0 13 13 13t13 -13v-52q0 -13 -13 -13t-13 13zM469 382q-9 7 -3 18l30 41q9 12 18 3q12 -7 4 -17l-31 -43q-4 -5 -10 -5q-5 0 -8 3zM677 13v52q0 5 4 9t9 4q13 0 13 -13v-52q0 -13 -13 -13q-5 0 -9 4t-4 9zM677 220v52q0 5 4 9t9 4 q13 0 13 -13v-52q0 -13 -13 -13q-5 0 -9 4t-4 9zM677 427v52q0 13 13 13t13 -13v-52q0 -13 -13 -13q-4 0 -8.5 4t-4.5 9zM198 552l-29 42q-7 11 2 18q13 9 18 -3l31 -41q7 -11 -3 -18q-2 -3 -7 -3q-7 0 -12 5zM104 323v52q0 13 13 13t13 -13v-52q0 -12 -13 -12t-13 12z M104 116v52q0 13 13 13t13 -13v-52q0 -12 -13 -12t-13 12zM104 530v52q0 13 13 13t13 -13v-52q0 -12 -13 -12t-13 12zM530 466q-9 7 -3 18l30 41q8 13 18 3q12 -8 3 -18l-30 -42q-5 -5 -11 -5q-5 0 -7 3zM677 116v52q0 13 13 13t13 -13v-52q0 -12 -13 -12q-5 0 -9 4t-4 8z M677 323v52q0 13 13 13t13 -13v-52q0 -12 -13 -12q-5 0 -9 4t-4 8zM677 530v52q0 13 13 13t13 -13v-52q0 -12 -13 -12q-5 0 -9 4t-4 8zM320 384l-30 43q-10 10 3 17q10 10 18 -3l30 -41q6 -11 -3 -18q-3 -3 -8 -3q-6 0 -10 5zM591 550q-12 7 -3 18l30 41q6 11 18 3 q9 -7 2 -18l-29 -42q-5 -5 -11 -5q-5 0 -7 3zM259 468l-29 42q-7 11 2 18q12 8 18 -3l30 -41q8 -12 -3 -18q-2 -3 -7 -3q-6 0 -11 5z" />
<glyph unicode="N" horiz-adv-x="771" d="M136 638l-6 8v-14q0 -13 -13 -13q-5 0 -9 4t-4 9v50v4q0 5 5 10q11 6 18 -2l30 -42q7 -9 -3 -18q-2 -1 -8 -1q-8 0 -10 5zM592 5l-12 17q-7 9 3 17q5 4 10 2v34q0 12 13 12q12 0 12 -12v-51q0 -4 -3 -9q2 -8 -6 -14q-1 -1 -6 -1q-9 0 -11 5zM104 125v51q0 13 13 13 t13 -13v-51q0 -12 -13 -12q-5 0 -9 4t-4 8zM104 530v51q0 13 13 13t13 -13v-51q0 -12 -13 -12q-5 0 -9 4t-4 8zM104 227v50q0 13 13 13t13 -13v-50q0 -13 -13 -13q-5 0 -9 4t-4 9zM104 24v51q0 12 13 12t13 -12v-51q0 -13 -13 -13q-5 0 -9 4.5t-4 8.5zM104 429v51 q0 12 13 12t13 -12v-51q0 -13 -13 -13q-5 0 -9 4t-4 9zM104 328v50q0 13 13 13t13 -13v-50q0 -13 -13 -13q-5 0 -9 4.5t-4 8.5zM255 473l-30 41q-7 11 3 18q8 8 18 -3l29 -40q6 -11 -2 -18q-3 -3 -8 -3q-7 0 -10 5zM314 391l-30 41q-8 12 4 17q9 9 16 -2l31 -41 q6 -12 -3 -17q-2 -3 -7 -3q-7 0 -11 5zM195 556l-29 40q-6 11 3 18q10 8 18 -3l29 -41q9 -9 -3 -17q-2 -2 -7 -2q-7 0 -11 5zM492 144l-30 42q-8 8 3 18q9 7 18 -4l29 -41q6 -10 -3 -17q-6 -3 -7 -3q-5 0 -10 5zM593 125v51q0 13 13 13q12 0 12 -13v-51q0 -12 -12 -12 q-5 0 -9 3.5t-4 8.5zM593 530v51q0 13 13 13q12 0 12 -13v-51q0 -12 -12 -12q-5 0 -9 3.5t-4 8.5zM373 309l-29 42q-7 9 2 16q11 9 18 -2l30 -41q8 -11 -4 -18q-2 -2 -7 -2q-7 0 -10 5zM593 227v50q0 13 13 13q12 0 12 -13v-50q0 -13 -12 -13q-13 0 -13 13zM593 632v50 q0 13 13 13q12 0 12 -13v-50q0 -13 -12 -13q-13 0 -13 13zM593 429v51q0 12 13 12q12 0 12 -12v-51q0 -13 -12 -13q-5 0 -9 4t-4 9zM593 328v50q0 13 13 13q12 0 12 -13v-50q0 -13 -12 -13q-5 0 -9 4t-4 9zM551 62l-30 42q-3 4 -2 9.5t6 8.5q10 6 16 -4l30 -41q8 -10 -2 -18 q-6 -2 -8 -2q-5 0 -10 5zM432 227l-29 41q-7 9 3 18q10 8 17 -4l29 -40q8 -11 -2 -18q-6 -2 -8 -2q-6 0 -10 5z" />
<glyph unicode="O" horiz-adv-x="850" d="M364 3q-14 2 -12 13q2 14 14 12q14 -3 43 -3h8q5 0 8.5 -3.5t3.5 -8.5q0 -13 -12 -13h-8q-31 0 -45 3zM455 15q-3 13 10 15q15 3 46 14q12 4 17 -6q3 -14 -6 -18q-23 -8 -52 -15h-3q-10 0 -12 10zM311 14q-17 6 -49 20q-11 8 -7 19q9 11 19 5q21 -12 44 -18q11 -3 9 -17 q-4 -9 -13 -9h-3zM551 48q-6 12 5 18q22 10 40 28v0q12 6 19 -3t-2 -18q-19 -15 -44 -29q-4 -2 -6 -2q-9 0 -12 6zM216 63l-41 36q-8 8 0 18q11 10 19 0q21 -21 37 -32v0q11 -10 3 -18q-4 -5 -11 -5q-5 0 -7 1zM634 109q-9 9 -1 19q10 11 30 39v0q6 9 17 4q10 -7 3 -18 q-9 -15 -31 -43q-6 -4 -9 -4t-9 3zM141 140q-18 25 -26 45q-8 13 5 17q11 7 17 -5q14 -26 26 -43q8 -10 -4 -18q-2 -2 -6 -2q-7 0 -12 6zM692 193q-11 7 -6 18q14 33 18 46q1 5 6 8t10 1q11 -4 9 -17q-6 -19 -19 -49q-4 -8 -13 -8h-3zM93 234q-6 16 -14 52q-2 11 10 15 q12 2 16 -10q3 -22 13 -50v0q3 -10 -9 -15q-2 -1 -4 -1q-8 0 -12 9zM725 291q-12 2 -10 14q2 32 2 50q0 20 -1 30q0 13 11 13q14 2 14 -11q2 -10 2 -32q0 -21 -4 -53q0 -11 -12 -11h-2zM73 339v16q0 18 3 36q0 5 3.5 8.5t8.5 2.5q14 0 12 -13q0 -5 -1 -17t-1 -17v-15 q1 -6 -2.5 -10t-8.5 -4h-1q-11 0 -13 13zM708 435q-9 32 -15 45v0q-3 14 8 18q13 4 18 -7q9 -25 15 -51q2 -13 -10 -16h-3q-10 0 -13 11zM93 428q-13 4 -9 15q6 29 16 52q3 12 17 7q12 -6 8 -17q-10 -23 -16 -47q-3 -10 -13 -10h-3zM672 526q-13 23 -27 41q-9 9 2 18 q12 8 17 -3q14 -14 31 -44q4 -12 -5 -17q-2 0 -4 -1t-3 -1q-7 0 -11 7zM129 524q-12 7 -4 18q13 21 29 44q10 10 18 2q10 -6 2 -18q-23 -32 -28 -41v0q-4 -6 -11 -6q-4 0 -6 1zM611 603q-12 11 -38 31q-10 6 -4 18q8 10 18 4q18 -13 41 -34q11 -9 1 -18q-3 -4 -10 -4 q-5 0 -8 3zM190 607q-8 7 2 17q18 20 42 33q9 8 16 -4q7 -9 -3 -16q-26 -20 -39 -32q-4 -2 -9 -2t-9 4zM529 658q-16 8 -45 17q-13 2 -10 15q2 11 16 9q32 -9 49 -18q13 -4 7 -16q-3 -8 -12 -8q-4 0 -5 1zM274 666q-6 12 6 16q20 9 51 18q13 2 16 -10q2 -12 -10 -15 q-21 -5 -47 -15v0q-1 -2 -5 -2q-8 0 -11 8zM434 682q-7 2 -25 2q-16 0 -24 -2q-12 0 -14 13q0 14 13 14q7 1 25 1q19 0 28 -1q5 0 8.5 -5t2.5 -10q0 -12 -12 -12h-2z" />
<glyph unicode="P" horiz-adv-x="583" d="M187 302h-52q-12 0 -13 10q-2 -1 -5 -1q-5 0 -9 4t-4 9v52q0 13 13 13t13 -13v-49l2 1h3h52q5 0 9 -4t4 -9q0 -13 -13 -13zM104 635v52q0 13 13 13h1h1h51q13 0 13 -13t-13 -13h-40v-39q0 -13 -13 -13q-5 0 -9 4t-4 9zM104 13v52q0 13 13 13t13 -13v-52q0 -13 -13 -13 t-13 13zM497 533q-5 23 -14 45q-7 12 5 17q10 7 18 -5q11 -22 17 -53q2 -11 -11 -15h-2q-11 0 -13 11zM104 428v52q0 13 13 13t13 -13v-52q0 -13 -13 -13t-13 13zM274 674h-52q-5 0 -9 4t-4 9q0 13 13 13h52q13 0 13 -13t-13 -13zM104 220v52q0 13 13 13t13 -13v-52 q0 -13 -13 -13q-5 0 -9 4t-4 9zM291 302h-52q-13 0 -13 13t13 13h52q5 0 9 -4t4 -9q0 -13 -13 -13zM495 421q-12 6 -7 17q10 22 11 47q0 11 15 11q11 -2 11 -14q-1 -26 -13 -54q-3 -8 -11 -8q-4 0 -6 1zM455 618q-17 19 -37 30q-12 7 -4 18q6 11 18 4q24 -14 41 -35 q11 -9 0 -18q-3 -4 -9 -4q-5 0 -9 5zM104 117v52q0 12 13 12t13 -12v-52q0 -13 -13 -13t-13 13zM104 531v52q0 13 13 13t13 -13v-52q0 -12 -13 -12q-5 0 -9 3.5t-4 8.5zM378 668h-4q-30 6 -47 6h-1q-5 0 -9 4t-4 9q0 13 13 13h1q25 0 54 -8q13 -2 9 -15q-3 -9 -12 -9z M428 344q-9 11 3 18q16 12 33 33q7 13 19 3q10 -6 2 -18q-18 -21 -39 -39q-6 -3 -8 -3q-4 0 -10 6zM330 315q-1 4 2.5 8.5t8.5 4.5q26 2 47 12q12 2 17 -8q3 -11 -8 -17q-22 -8 -53 -13h-1q-13 0 -13 13z" />
<glyph unicode="Q" horiz-adv-x="844" d="M683 484q-4 9 8 17q11 3 17 -8q13 -35 16 -52q2 -4 -1 -8.5t-9 -6.5h-1l-1 -1q-11 0 -14 12q-4 21 -15 47zM694 259q4 12 17 9q13 -4 9 -15q-11 -33 -20 -51q-4 -7 -11 -7q-5 0 -7 2q-10 3 -7 17q14 26 19 45zM531 681q11 -3 7 -16q-4 -7 -12 -7q-4 0 -5 2q-41 13 -47 14 q-12 5 -8 15q2 13 15 11q14 -4 50 -19zM428 709q13 -2 13 -14q-2 -12 -14 -12h-1q-9 1 -26 1h-23q-5 -1 -9 2.5t-4 8.5q0 12 12 14q5 0 12.5 0.5t11.5 0.5t13.5 -0.5t14.5 -0.5zM400 2q-15 0 -45 4q-13 2 -11 14q3 13 16 11q18 -3 40 -3q1 0 3 0.5t4 0.5q5 0 9 -4.5t4 -9.5 q0 -13 -12 -13h-8zM224 658q5 4 10.5 3t7.5 -6q6 -11 -3 -18q-22 -14 -38 -30q-3 -3 -9 -3q-7 0 -10 3q-10 12 0 18q14 13 42 33zM307 16q-2 0 -3 1q-26 7 -50 21q-13 8 -7 17q5 12 18 7q24 -13 47 -20q11 -6 8 -16t-13 -10zM323 701q13 2 15 -9q2 -13 -9 -16 q-12 -3 -45 -15q-2 -1 -5 -1q-11 0 -14 6q-5 12 7 17q7 2 24.5 8.5t26.5 9.5zM720 401q12 0 12 -13q1 -11 1 -32q0 -26 -3 -53q-2 -10 -11 -10h-4q-13 2 -11 14q4 32 4 49q0 20 -2 29q-1 6 3.5 10.5t10.5 5.5zM559 46q-1 -1 -6 -1q-7 0 -10 5q-7 10 4 21q32 20 39 26 q9 9 20 -1q8 -12 -3 -17q-23 -21 -44 -33zM670 175q10 -10 3 -18q-16 -27 -31 -43q-4 -3 -9 -3q-7 0 -9 2q-11 9 0 17q17 22 28 40q7 10 18 5zM185 120q35 -30 38 -32q11 -8 2 -17q-3 -6 -9 -6q-4 0 -8 2q-35 30 -40 36q-9 8 0 17q8 9 17 0zM87 430q-13 3 -11 16q2 9 8.5 28 l7.5 22q7 13 17 8q13 -5 7 -17q-13 -41 -14 -47q-5 -10 -13 -10h-2zM121 527q-10 5 -5 17q8 15 30 43q8 10 18 3q9 -8 3 -18q-14 -14 -29 -42q-3 -5 -10 -5q-3 0 -7 2zM600 604q-14 14 -38 31q-11 6 -3 18q7 11 18 4q37 -29 42 -34q5 -4 5 -9.5t-5 -8.5q-3 -4 -9 -4t-10 3z M79 328q-11 0 -13 12v16q0 12 2 36q0 6 4 10t9 3q12 -1 12 -16q-2 -20 -2 -33q0 -10 1 -15q0 -11 -13 -13zM663 528q-10 18 -28 41q-3 4 -2 9.5t5 7.5q9 9 17 -1q16 -22 29 -45q8 -10 -4 -17q-2 -2 -7 -2q-7 0 -10 7zM111 245q4 -13 -9 -15q-2 -1 -4 -1q-8 0 -14 8l-12 51 q-2 12 10 14q13 2 15 -9q5 -27 14 -48zM130 199q14 -27 24 -41q3 -4 2 -9.5t-4 -7.5q-2 -3 -8 -3t-9 5q-22 30 -29 46q-6 9 6 16q13 6 18 -6zM507 20l-46 -21q-1 0 -2 -0.5t-2 -0.5q-8 0 -13 8q-3 5 1 11v1q-2 13 12 15q36 10 46 14q4 2 9.5 -0.5t7.5 -7.5q4 -11 -9 -17h-1 q0 -1 -1 -1zM708 -110q4 2 9 -0.5t7 -7.5q5 -12 -9 -16q-30 -9 -53 -10h-2q-11 0 -11 12q-1 4 3 8.5t8 4.5q22 1 48 9zM612 -117q14 -2 12 -14q-4 -11 -14 -11h-2q-30 7 -52 14q-11 6 -8 16q6 13 17 8q24 -9 47 -13zM804 -67q9 -11 -2 -18q-14 -14 -38 -27q-2 -1 -5 -1 q-11 0 -12 6q-6 12 4 17q24 16 35 24q12 7 18 -1zM329 -49q1 -1 2 -3.5t1 -3.5q2 -12 -9 -15q-19 -4 -32 -10l-12 -5q-6 -2 -7 -2q-6 0 -9 3q-5 3 -5 6q-6 11 6 16l48 21q11 6 16 -6q1 0 1 -1zM520 -83q10 -5 6 -18q-4 -7 -13 -7h-2q-2 1 -4 1q-5 4 -17 10.5t-17 10.5 q-2 1 -5 3t-4 2q-12 6 -5 16q3 10 16 6q2 -1 5 -3t4 -3l17.5 -9t18.5 -9zM424 -41q12 -3 9 -16q-1 -9 -12 -9h-3q-20 3 -37 3h-10q-5 -1 -9 3t-4 10l3 6q-8 2 -9 6q-6 10 6 18l46 21q10 5 17 -6q5 -11 -6 -18l-34 -15q21 0 43 -3z" />
<glyph unicode="R" horiz-adv-x="625" d="M172 305h-51q-12 0 -13 10q-2 -1 -5 -1q-13 0 -13 13v51q0 13 13 13t13 -13v-48h2q2 1 3 1h51q5 0 9 -4t4 -9q0 -13 -13 -13zM90 636v51q0 11 12 13h2h52q12 0 12 -13t-12 -13h-40v-38q0 -13 -13 -13t-13 13zM356 291q-26 9 -34 11l-13 3q-13 2 -11 15q4 13 16 11l6 -2 q4 2 5 2q25 1 47 11q12 4 17 -7q4 -13 -8 -17q-12 -5 -13 -5q8 -6 5 -14q-3 -9 -13 -9h-2q-1 1 -2 1zM481 46q-8 27 -9 53q0 14 12 14q12 3 14 -11q1 -20 8 -48q4 -11 -8 -17h-4q-8 0 -13 9zM90 224v51q0 13 13 13t13 -13v-51q0 -13 -13 -13t-13 13zM90 430v51q0 13 13 13 t13 -13v-51q0 -13 -13 -13t-13 13zM90 533v51q0 13 13 13t13 -13v-51q0 -13 -13 -13t-13 13zM435 237q-13 17 -36 31q-10 10 -4 18q7 11 18 4q26 -16 42 -37q7 -9 -1 -18q-4 -2 -9 -2q-7 0 -10 4zM275 305h-51q-13 0 -13 13t13 13h51q5 0 9 -4t4 -9q0 -13 -13 -13zM90 121 v51q0 13 13 13t13 -13v-51q0 -13 -13 -13q-5 0 -9 4t-4 9zM90 18v51q0 13 13 13t13 -13v-51q0 -13 -13 -13q-5 0 -9 4t-4 9zM259 674h-52q-5 0 -9 4t-4 9q0 13 13 13h52q12 0 12 -13t-12 -13zM479 423q-14 6 -8 17q10 22 11 46q0 12 15 12q11 -2 11 -14q-3 -30 -13 -54 q-3 -8 -11 -8q-4 0 -5 1zM480 534q-5 23 -14 45q-8 12 5 17q11 7 17 -5q11 -21 18 -53q2 -12 -11 -14h-2q-11 0 -13 10zM412 346q-8 11 2 18t34 34q8 12 18 2q8 -7 2 -18q-17 -21 -38 -38q-4 -3 -8 -3q-5 0 -10 5zM439 619q-21 21 -38 30q-10 5 -3 18q5 10 18 3 q24 -15 41 -34q9 -9 0 -18q-4 -4 -9 -4q-6 0 -9 5zM362 668h-4q-22 6 -47 6h-1q-4 0 -8.5 4t-4.5 9q0 13 13 13h1q26 0 53 -8q6 -1 8.5 -5.5t0.5 -9.5q-2 -9 -11 -9zM471 152q-1 22 -10 45q-6 11 6 17q12 4 17 -7q10 -30 13 -54q0 -12 -13 -14q-13 0 -13 13zM528 0h-4 q-12 2 -12 14q2 14 14 12h3q13 2 15 -8q4 -11 -7 -17q-1 0 -3.5 -0.5t-5.5 -0.5z" />
<glyph unicode="S" horiz-adv-x="667" d="M327 0q-12 0 -12 12q0 11 12 11h1q22 0 43 3v0q11 2 13 -10q2 -11 -10 -13q-22 -3 -46 -3h-1zM280 4q-32 6 -46 11q-12 2 -8 14q3 10 14 8q19 -7 43 -10q12 -2 10 -13q-2 -10 -12 -10h-1zM406 21q-3 10 8 14q22 6 41 15v0q11 5 15 -5q5 -11 -5 -15q-23 -12 -45 -17h-3 q-8 0 -11 8zM189 30l-42 21q-10 6 -4 15q5 11 15 5q26 -14 40 -20q12 -4 6 -15q-4 -7 -10 -7q-1 0 -2.5 0.5t-2.5 0.5zM490 56q-7 8 3 16q21 16 32 29q7 8 16 1q9 -8 1 -16q-18 -19 -36 -32q-3 -3 -7 -3q-6 0 -9 5zM107 75q-19 13 -36 27q-9 7 -2 16q7 8 16 1q31 -23 35 -25 v0q10 -8 3 -16q-3 -5 -10 -5q-2 0 -6 2zM554 121q-10 3 -6 15q11 20 12 40q2 12 13 10q12 -2 10 -13q-3 -23 -14 -47q-3 -6 -10 -6q-4 0 -5 1zM558 217q-4 18 -17 38q-6 9 3 16q11 5 16 -3q13 -19 20 -45q3 -12 -8 -14h-3q-9 0 -11 8zM513 286q-18 13 -37 24v0q-10 6 -4 15 q5 11 15 5q21 -11 40 -27q9 -7 2 -16q-6 -4 -9 -4q-4 0 -7 3zM436 328q-24 9 -42 14q-11 4 -8 14q2 12 14 8q40 -14 44 -15q11 -4 7 -15q-3 -7 -11 -7q-3 0 -4 1zM350 353q-8 1 -24 5h-2q-14 2 -19 4q-11 2 -9 13q4 11 14 9q12 -2 18 -4h2q4 -1 12.5 -2.5t12.5 -2.5 q11 -2 9 -13q-3 -10 -12 -10q0 1 -2 1zM260 373q-24 6 -44 15q-11 4 -7 14q5 10 15 7q24 -9 42 -14q11 -4 8 -14q-2 -9 -11 -9q-2 0 -3 1zM173 408q-24 13 -39 28q-8 7 -1 16q9 8 16 1q17 -15 35 -25q10 -5 5 -16q-5 -6 -10 -6q-2 0 -6 2zM103 475q-12 23 -13 48v0 q-2 10 10 12q12 0 12 -10q3 -25 12 -40q6 -10 -5 -15q-2 -1 -5 -1q-6 0 -11 6zM102 558q-10 4 -7 14q5 19 21 44q8 10 16 3q10 -8 3 -16q-14 -22 -18 -37q-4 -9 -11 -9q-3 0 -4 1zM531 609l-19 12.5l-19 12.5q-11 6 -4 15q5 10 15 4q11 -6 39 -25q10 -5 4 -15q-5 -6 -10 -6 q-2 0 -6 2zM148 636q-8 8 1 16q12 10 40 26q11 5 16 -5q6 -10 -5 -15q-20 -10 -36 -24q-3 -3 -7 -3q-6 0 -9 5zM453 655q-20 11 -40 18q-11 3 -7 14t14 7q24 -8 44 -18v0q10 -6 5 -16q-3 -6 -10 -6q-4 0 -6 1zM226 682q-3 10 7 14q25 8 47 11q11 2 13 -10q2 -11 -10 -13 q-22 -3 -43 -9q-1 -1 -3 -1q-8 0 -11 8zM370 684q-21 3 -43 3q-12 2 -12 12q0 11 12 11q27 0 47 -4v0q12 -2 10 -13q-2 -10 -12 -10q0 1 -2 1z" />
<glyph unicode="T" horiz-adv-x="648" d="M268 635v39q-11 2 -11 13q0 13 13 13h11h2h39q13 0 13 -13q0 -5 -4 -9t-9 -4h-28v-39q0 -13 -13 -13t-13 13zM268 220v52q0 13 13 13q5 0 9 -4t4 -9v-52q0 -5 -4 -9t-9 -4q-13 0 -13 13zM268 324v52q0 13 13 13q5 0 9 -4.5t4 -8.5v-52q0 -13 -13 -13t-13 13zM268 428v52 q0 13 13 13q5 0 9 -4.5t4 -8.5v-52q0 -13 -13 -13t-13 13zM268 13v52q0 13 13 13q5 0 9 -4t4 -9v-52q0 -13 -13 -13t-13 13zM530 674h-52q-13 0 -13 13t13 13h52q13 0 13 -13q0 -5 -4.5 -9t-8.5 -4zM426 674h-52q-13 0 -13 13t13 13h52q13 0 13 -13q0 -5 -4.5 -9t-8.5 -4z M115 674h-52q-13 0 -13 13t13 13h52q13 0 13 -13q0 -5 -4 -9t-9 -4zM268 117v52q0 12 13 12q5 0 9 -4t4 -8v-52q0 -13 -13 -13t-13 13zM268 531v52q0 13 13 13q5 0 9 -4t4 -9v-52q0 -12 -13 -12t-13 12zM219 674h-52q-13 0 -13 13t13 13h52q12 0 12 -13q0 -5 -4 -9t-8 -4z " />
<glyph unicode="U" horiz-adv-x="814" d="M350 1q-12 3 -12 15q4 13 16 11q10 -2 31 -2h17q12 0 12 -11q1 -6 -2.5 -10t-8.5 -4h-18q-24 0 -35 1zM440 18q-2 13 9 15q26 7 45 16q12 5 17 -6q3 -5 1.5 -9.5t-6.5 -6.5q-27 -13 -51 -18q-1 -1 -3 -1q-11 0 -12 10zM298 14q-29 8 -48 20q-12 7 -6 18q7 10 18 5 q21 -12 45 -19q5 -2 7 -7t0 -9q-2 -9 -12 -9q-3 0 -4 1zM534 56q-9 11 2 18q26 20 36 33q8 9 17 0q9 -11 2 -18q-26 -26 -40 -36q-4 -2 -7 -2q-8 0 -10 5zM205 65q-16 14 -37 38q-6 9 2 17q12 8 17 -2q19 -21 35 -34q11 -7 2 -18q-3 -4 -10 -4q-6 0 -9 3zM606 127 q-11 7 -5 18q10 13 23 43v0q4 11 16 6q11 -6 6 -16q-10 -28 -24 -47q-4 -7 -10 -7q-3 0 -6 3zM139 146q-13 22 -21 49q-4 13 9 16q5 2 9.5 -1t5.5 -7q10 -29 19 -44q6 -11 -5 -18q-2 -2 -7 -2q-7 0 -10 7zM646 219q-12 4 -10 14q4 21 4 47v2q0 12 13 12t13 -12v-2 q0 -18 -4 -50q-3 -12 -13 -12q-1 0 -3 1zM106 247q-1 10 -1 33v19q0 13 13 13q5 0 8.5 -4t3.5 -9v-19q0 -20 2 -30v0q2 -14 -12 -14h-1q-10 0 -13 11zM640 332v51q0 13 13 13t13 -13v-51q0 -5 -4 -8.5t-9 -3.5t-9 3.5t-4 8.5zM105 350v51q0 12 13 12q4 0 8 -3.5t4 -8.5v-51 q0 -13 -12 -13q-13 0 -13 13zM640 434v50q0 13 13 13t13 -13v-50q0 -13 -13 -13t-13 13zM105 451v51q0 13 13 13q5 0 8.5 -4t3.5 -9v-51q0 -12 -12 -12q-13 0 -13 12zM640 535v51q0 13 13 13t13 -13v-51q0 -5 -4 -9t-9 -4t-9 4t-4 9zM105 553v51q0 12 13 12q4 0 8 -4t4 -8 v-51q0 -13 -12 -13q-13 0 -13 13zM640 637v50q0 13 13 13t13 -13v-50q0 -13 -13 -13t-13 13zM105 654v33q0 13 13 13q12 0 12 -13v-33q0 -12 -12 -12q-13 0 -13 12z" />
<glyph unicode="V" horiz-adv-x="750" d="M236 261l-21 47q-4 13 8 16q9 6 17 -6l19 -47q4 -12 -7 -17h-2q-2 -1 -3 -1q-9 0 -11 8zM495 348q-11 5 -6 17l19 46q6 10 18 7q10 -5 6 -17l-20 -47q-3 -7 -12 -7q-2 0 -5 1zM314 75l-20 47q-5 10 8 16q10 5 16 -6l19 -47q5 -12 -6 -17q-2 -1 -5 -1q-10 0 -12 8zM378 68 q-11 5 -7 17l19 47q5 11 17 6q12 -6 7 -16l-20 -47q-2 -8 -11 -8q-4 0 -5 1zM157 448l-20 47q-6 12 6 16q11 4 18 -6l19 -47q6 -12 -6 -16q-3 -1 -5 -1q-9 0 -12 7zM197 354l-21 47q-4 12 7 17q12 4 17 -7l19 -46q5 -12 -6 -17q-3 -1 -5 -1q-10 0 -11 7zM613 628 q-12 4 -6 16l20 47q4 12 16 6q11 -3 7 -16l-19 -47q-5 -7 -13 -7q-3 0 -5 1zM422 161h-5q-10 6 -7 16l19 47q6 12 17 8q12 -5 7 -17l-20 -47q-1 -7 -11 -7zM456 254q-12 6 -6 17l19 47q6 12 16 6q12 -3 8 -16l-21 -47q-2 -8 -11 -8q-1 0 -3 1h-2zM275 168l-20 47q-5 11 7 17 q11 3 17 -8l19 -47q3 -10 -7 -16h-5q-10 0 -11 7zM534 442q-10 3 -6 16l20 47q6 12 17 6q12 -4 6 -16l-20 -47q-1 -7 -11 -7q-3 0 -6 1zM118 542l-20 45q-4 11 6 18q11 6 17 -8l20 -46q4 -12 -7 -17h-5q-9 0 -11 8zM79 634l-20 47q-6 12 6 16q12 6 16 -6l21 -47 q4 -13 -7 -16q-2 -1 -5 -1q-9 0 -11 7zM579 534h-5q-11 5 -7 17l21 46q2 5 7 7.5t9 0.5q10 -7 6 -16l-20 -47q-2 -8 -11 -8zM359 0h-9q-2 1 -4 3q-1 0 -1 1l-2 2q-1 1 -1 2l-9 20q-4 13 8 16q6 3 13 -2q6 6 13 2q5 -2 7.5 -7t0.5 -9l-8 -18q-2 -7 -8 -10z" />
<glyph unicode="W" horiz-adv-x="1102" d="M578 454l-10 23l-9 -23q-4 -7 -12 -7q-3 0 -5 1q-12 6 -7 17l20 46q4 11 15 7q9 0 12 -7l20 -46q3 -12 -8 -17q-1 -1 -5 -1q-8 0 -11 7zM617 361l-19 47q-3 5 -1 9.5t7 6.5q12 5 17 -6l20 -47q6 -11 -8 -17q-1 -1 -5 -1q-8 0 -11 8zM240 261l-19 47q-3 5 -1 9.5t7 6.5 q11 7 17 -6l20 -47q4 -12 -8 -17h-2q-1 -1 -3 -1q-7 0 -11 8zM880 254q-12 6 -7 17l20 47q2 5 6.5 7t9.5 -1q13 -4 7 -16l-19 -47q-6 -8 -12 -8q-1 0 -2.5 0.5t-2.5 0.5zM802 68q-11 5 -8 17l20 47q6 12 17 6t6 -16l-19 -47q-3 -8 -11 -8q-4 0 -5 1zM122 542l-20 45 q-4 11 7 18q11 5 17 -8l19 -46q6 -11 -7 -17h-5q-6 0 -11 8zM318 75l-19 47q-4 11 7 16q10 5 16 -6l20 -47q5 -11 -7 -17q-2 -1 -5 -1q-7 0 -12 8zM464 261q-12 3 -8 16l20 47q7 13 17 6q12 -4 6 -16l-19 -47q-4 -8 -11 -8q-2 0 -3 1zM161 448l-20 47q-2 5 0.5 10t7.5 6 q12 6 16 -6l19 -47q3 -5 1 -9.5t-7 -6.5q-2 -1 -5 -1q-8 0 -12 7zM919 348q-12 6 -6 17l19 46q5 11 17 7q12 -6 6 -17l-19 -47q-4 -7 -11 -7q-4 0 -6 1zM385 75q-5 2 -7 7t0 9l20 47q6 11 16 6q11 -3 7 -16l-19 -47q-5 -8 -13 -8q-2 0 -4 2zM959 442q-13 4 -7 16l19 47 q6 12 17 6q5 -2 7 -7t0 -9l-20 -47q-3 -7 -11 -7q-4 0 -5 1zM656 267l-19 47q-4 13 7 16q10 6 16 -6l20 -47q2 -4 0 -9t-7 -7q-1 0 -2.5 -1t-2.5 -1q-6 0 -12 8zM83 634l-20 47q-2 4 0 9t7 7q11 6 17 -6l19 -47q4 -13 -7 -16q-1 -1 -5 -1q-8 0 -11 7zM1037 628q-12 4 -6 16 l19 47q4 12 16 6q12 -3 8 -16l-20 -47q-5 -7 -12 -7q-4 0 -5 1zM430 167h-5q-12 7 -8 18l20 45q6 13 17 8q11 -6 6 -16l-19 -47q-5 -8 -11 -8zM279 168l-19 47q-5 12 6 17q11 3 17 -8l20 -47q4 -9 -8 -16h-5q-7 0 -11 7zM695 175l-19 47q-4 11 7 16q5 2 10 -0.5t6 -7.5 l20 -45q4 -11 -7 -18h-5q-7 0 -12 8zM503 354q-12 6 -8 17l21 47q4 12 16 6q5 -2 7 -6.5t-1 -9.5l-19 -47q-3 -8 -11 -8q-4 0 -5 1zM735 81l-19 47q-6 12 6 16q12 6 16 -6l21 -47q4 -12 -8 -16q-1 -2 -4 -2q-9 0 -12 8zM1003 534h-5q-12 6 -6 17l19 46q1 5 6 7.5t10 0.5 q11 -7 8 -18l-21 -45q-3 -8 -11 -8zM846 161h-5q-11 7 -8 16l21 47q4 12 16 8q12 -6 6 -17l-19 -47q-3 -7 -11 -7zM201 354l-19 47q-6 11 6 17q13 4 16 -7l19 -46q6 -11 -6 -17q-1 -1 -5 -1q-8 0 -11 7zM357 0h-3q-6 3 -8 9l-8 19q-4 13 7 16q6 3 13 -2l1 2q3 11 16 7 q11 -5 7 -17l-11 -24q-2 -6 -7 -10h-5h-2zM783 0h-10q-6 3 -8 9l-10 25q-5 12 6 17q12 4 17 -7v-2q7 5 14 2q12 -4 6 -16l-8 -18q-2 -6 -7 -10z" />
<glyph unicode="X" horiz-adv-x="722" d="M320 329q-11 7 -4 18l2 2l-17 23q-8 11 4 18q9 9 16 -3l12 -17l13 17q8 13 18 3q9 -7 3 -18l-17 -24l1 -1q7 -11 -2 -18q-6 -2 -8 -2q-5 0 -7 1q-3 -1 -8 -1q-4 0 -6 2zM450 168l-29 41q-9 11 3 18q11 7 17 -3l31 -40q6 -11 -4 -18q-1 -3 -8 -3q-5 0 -10 5zM439 492 q-11 8 -3 18l29 41q9 10 18 3q11 -9 4 -17l-30 -42q-5 -5 -11 -5q-3 0 -7 2zM151 577l-29 41q-9 11 3 17q10 8 18 -2l29 -41q10 -12 -3 -17q-1 -3 -7 -3q-7 0 -11 5zM259 247q-8 8 -2 18l30 41q7 9 18 3q10 -8 2 -18l-30 -42q-7 -5 -10 -5q-2 0 -4.5 1.5t-3.5 1.5zM200 166 q-9 7 -3 18l30 40q7 9 18 3q9 -7 3 -18l-31 -41q-3 -5 -10 -5q-5 0 -7 3zM391 249l-29 42q-10 10 2 18q8 7 18 -3l29 -41q8 -10 -3 -18q-6 -3 -7 -3q-5 0 -10 5zM272 414l-31 40q-6 11 3 18q11 7 18 -2l30 -42q7 -9 -3 -18q-2 -1 -7 -1q-8 0 -10 5zM570 5l-30 41q-7 9 3 17 q11 8 17 -2l31 -41q7 -11 -3 -17q-2 -3 -7 -3q-7 0 -11 5zM140 84q-4 2 -4.5 7.5t2.5 9.5l29 41q8 9 17 4q12 -8 4 -18l-30 -42q-8 -5 -10 -5q-4 0 -8 3zM379 410q-11 9 -2 18l29 42q8 10 18 2q12 -8 2 -18l-29 -40q-3 -5 -10 -5q-5 0 -8 1zM511 86l-30 42q-7 9 2 18 q11 6 18 -4l30 -41q3 -4 2.5 -9.5t-4.5 -7.5q-5 -3 -8 -3t-10 5zM498 575q-10 6 -2 17l30 41q7 9 18 2q10 -6 2 -17l-30 -41q-2 -5 -10 -5q-5 0 -8 3zM212 495l-30 42q-7 8 2 17q12 7 18 -3l30 -41q8 -10 -3 -18q-4 -2 -7 -2q-7 0 -10 5zM81 3q-13 5 -3 17l29 41q8 10 18 2 q11 -8 2 -17l-29 -41q-2 -5 -10 -5q-5 0 -7 3zM558 656q-11 7 -3 17l15 21q7 9 18 2q9 -7 3 -18l-15 -20q-8 -5 -11 -5q-4 0 -7 3zM92 658l-14 20q-8 12 3 18q8 7 17 -2l14 -21q4 -4 3 -9.5t-5 -7.5q-5 -3 -8 -3q-2 0 -10 5z" />
<glyph unicode="Y" horiz-adv-x="604" d="M305 303v39l-29 40q-9 11 2 18q9 7 18 -3l21 -30l22 30q8 10 18 3t2 -18l-29 -40v-39q0 -13 -13 -13q-12 0 -12 13zM372 420q-10 10 -3 18l29 42q9 9 18 2q11 -8 4 -17l-31 -41q-3 -6 -10 -6q-3 0 -7 2zM186 505l-31 41q-6 10 3 17q11 9 18 -2l30 -41q7 -11 -3 -17 q-3 -3 -7 -3q-8 0 -10 5zM305 100v51q0 12 12 12q13 0 13 -12v-51q0 -13 -13 -13q-12 0 -12 13zM245 424l-30 41q-8 10 4 17q8 7 17 -2l29 -42q7 -9 -2 -18q-6 -2 -8 -2q-5 0 -10 6zM305 201v51q0 13 12 13q13 0 13 -13v-51q0 -12 -13 -12q-12 0 -12 12zM431 503 q-10 6 -2 17l30 41q7 10 18 2q9 -7 2 -17l-30 -41q-4 -5 -10 -5q-3 0 -8 3zM126 587l-30 41q-8 10 2 18q12 5 18 -3l30 -42q7 -9 -2 -16q-3 -3 -8 -3t-10 5zM491 585q-10 8 -3 16l31 42q5 9 17 3q11 -8 3 -18l-31 -41q-3 -5 -10 -5q-5 0 -7 3zM305 13v36q0 13 12 13 q13 0 13 -13v-36q0 -13 -13 -13q-12 0 -12 13zM551 666q-10 7 -3 18l7 10q9 9 18 2q11 -7 3 -18l-7 -10q-5 -5 -10 -5q-2 0 -8 3zM65 668l-6 10q-8 12 3 18q8 7 17 -2l7 -10q9 -10 -3 -18q-3 -3 -7 -3t-11 5z" />
<glyph unicode="Z" horiz-adv-x="667" d="M556 656q-9 9 -3 17h-25q-13 0 -13 13t13 13h51q10 0 12 -11v-2v-2q0 -2 -2 -6l-15 -20q-8 -5 -11 -5q-4 0 -7 3zM174 673h-51q-13 0 -13 13t13 13h51q12 0 12 -13q0 -5 -4 -9t-8 -4zM477 673h-50q-13 0 -13 13t13 13h50q13 0 13 -13q0 -5 -4 -9t-9 -4zM376 673h-51 q-12 0 -12 13t12 13h51q13 0 13 -13q0 -4 -4.5 -8.5t-8.5 -4.5zM318 329q-11 7 -4 18l30 40q8 13 18 3q9 -7 3 -18l-29 -40q-4 -5 -12 -5q-4 0 -6 2zM437 492q-11 8 -3 18l29 41q9 10 18 3q11 -9 4 -17l-30 -42q-5 -5 -11 -5q-3 0 -7 2zM275 673h-51q-12 0 -12 13t12 13h51 q12 0 12 -13q0 -5 -4 -9t-8 -4zM257 247q-8 8 -2 18l30 41q7 9 18 3q10 -8 2 -18l-30 -42q-7 -5 -10 -5q-2 0 -4.5 1.5t-3.5 1.5zM198 166q-9 7 -3 18l30 40q7 9 18 3q9 -7 3 -18l-31 -41q-3 -5 -10 -5q-5 0 -7 3zM138 84q-11 6 -2 17l29 41q8 9 17 4q12 -8 4 -18l-30 -42 q-8 -5 -10 -5q-4 0 -8 3zM377 410q-11 9 -2 18l29 42q8 10 18 2q12 -8 2 -18l-29 -40q-3 -5 -10 -5q-5 0 -8 1zM174 0h-51q-13 0 -13 13q0 12 13 12h51q4 0 8 -3.5t4 -8.5q0 -13 -12 -13zM579 0h-51q-13 0 -13 13q0 12 13 12h51q5 0 8.5 -3.5t3.5 -8.5q0 -13 -12 -13zM477 0 h-50q-13 0 -13 13q0 12 13 12h50q5 0 9 -3.5t4 -8.5q0 -13 -13 -13zM376 0h-51q-12 0 -12 13q0 12 12 12h51q5 0 9 -4t4 -8q0 -13 -13 -13zM496 575q-10 6 -2 17l30 41q7 9 18 2q10 -6 2 -17l-30 -41q-2 -5 -10 -5q-5 0 -8 3zM79 3q-13 5 -3 17l29 41q8 10 18 2q11 -8 2 -17 l-29 -41q-2 -5 -10 -5q-5 0 -7 3zM275 0h-51q-12 0 -12 13q0 12 12 12h51q5 0 8.5 -3.5t3.5 -8.5q0 -13 -12 -13z" />
<glyph unicode="[" d="M171 -95h-58q-6 0 -10.5 4.5t-4.5 10.5t3 9q-3 5 -3 9v58q0 14 15 14q14 0 14 -14v-58q0 -2 -1 -4h45q14 0 14 -14q0 -15 -14 -15zM98 633v58q0 12 13 14h2h2h56q14 0 14 -14q0 -15 -14 -15h-44v-43q0 -15 -14 -15q-6 0 -10.5 4.5t-4.5 10.5zM98 285v58q0 6 4.5 10.5 t10.5 4.5q14 0 14 -15v-58q0 -14 -14 -14q-15 0 -15 14zM98 54v58q0 14 15 14q14 0 14 -14v-58q0 -15 -14 -15q-6 0 -10.5 4.5t-4.5 10.5zM98 401v58q0 6 4.5 10.5t10.5 4.5q14 0 14 -15v-58q0 -14 -14 -14q-15 0 -15 14zM98 170v57q0 6 4.5 10.5t10.5 4.5q14 0 14 -15v-57 q0 -15 -14 -15q-6 0 -10.5 4.5t-4.5 10.5zM98 517v58q0 14 15 14q14 0 14 -14v-58q0 -14 -14 -14q-15 0 -15 14zM254 676h-25q-6 0 -10.5 4.5t-4.5 10.5q0 14 15 14h25q15 0 15 -14q0 -6 -4.5 -10.5t-10.5 -4.5zM254 -95h-25q-6 0 -10.5 4.5t-4.5 10.5q0 14 15 14h25 q15 0 15 -14q0 -6 -4.5 -10.5t-10.5 -4.5z" />
<glyph unicode="\" horiz-adv-x="448" d="M71 1q-12 6 -7 17l8 20q5 12 17 7q5 -2 7 -7t0 -9l-8 -21q-5 -8 -13 -8q-3 0 -4 1zM99 68q-11 5 -6 17l19 46q2 5 7 7.5t9 0.5q11 -7 8 -18l-21 -45q-2 -9 -11 -9l-2 1h-3zM138 162q-12 4 -6 16l19 47q4 12 16 6q12 -4 8 -16l-20 -47q-3 -8 -12 -8q-4 0 -5 2zM177 255 q-11 5 -6 17l19 46q6 10 16 7q12 -4 8 -17l-20 -46q-3 -8 -12 -8q-3 0 -5 1zM216 347q-9 6 -6 18l19 46q7 11 18 7q12 -4 6 -16l-20 -47q-2 -8 -12 -8h-5zM256 441q-11 5 -7 16l19 47q8 11 18 6q12 -4 6 -16l-20 -47q-2 -7 -11 -7q-1 0 -2.5 0.5t-2.5 0.5zM295 534 q-11 5 -7 17l21 47q3 10 16 6q11 -6 6 -16l-20 -47q-2 -8 -11 -8q-3 0 -5 1zM334 628q-11 6 -6 16l20 47q4 12 16 6q11 -3 7 -16l-21 -47q-1 -7 -11 -7q-3 0 -5 1z" />
<glyph unicode="]" d="M211 -95h-58q-14 0 -14 15q0 14 14 14h45q-1 2 -1 4v58q0 14 14 14q15 0 15 -14v-58q0 -4 -3 -9q3 -3 3 -9t-4.5 -10.5t-10.5 -4.5zM226 633q0 -6 -4.5 -10.5t-10.5 -4.5q-14 0 -14 15v43h-44q-14 0 -14 15q0 14 14 14h56h2h2q13 -2 13 -14v-58zM226 285q0 -14 -15 -14 q-14 0 -14 14v58q0 15 14 15q6 0 10.5 -4.5t4.5 -10.5v-58zM226 54q0 -6 -4.5 -10.5t-10.5 -4.5q-14 0 -14 15v58q0 14 14 14q15 0 15 -14v-58zM226 401q0 -14 -15 -14q-14 0 -14 14v58q0 15 14 15q6 0 10.5 -4.5t4.5 -10.5v-58zM226 170q0 -6 -4.5 -10.5t-10.5 -4.5 q-14 0 -14 15v57q0 15 14 15q6 0 10.5 -4.5t4.5 -10.5v-57zM226 517q0 -14 -15 -14q-14 0 -14 14v58q0 14 14 14q15 0 15 -14v-58zM95 676h-25q-6 0 -10.5 4.5t-4.5 10.5q0 14 15 14h25q15 0 15 -14q0 -6 -4.5 -10.5t-10.5 -4.5zM95 -95h-25q-6 0 -10.5 4.5t-4.5 10.5 q0 14 15 14h25q15 0 15 -14q0 -6 -4.5 -10.5t-10.5 -4.5z" />
<glyph unicode="_" horiz-adv-x="600" d="M99 1q-7 0 -7 10q0 11 7 11h29q8 0 8 -11q0 -10 -8 -10h-29zM41 1q-7 0 -7 10q0 11 7 11h29q8 0 8 -11q0 -10 -8 -10h-29zM-17 1q-7 0 -7 10q0 11 7 11h29q8 0 8 -11q0 -10 -8 -10h-29z" />
<glyph unicode="a" horiz-adv-x="619" d="M250 25q13 0 11 -14q-4 -11 -13 -11h-1q-34 6 -52 13q-12 4 -7 16q2 5 7 7t9 0q24 -7 46 -11zM335 456q-30 8 -47 9q-11 0 -11 13q2 13 14 13q28 -5 52 -12q12 -3 8 -16q-4 -9 -12 -9q-1 0 -2 1t-2 1zM55 203h-1q-9 0 -13 11q-1 10 -1 31v22q2 12 14 12q6 -1 9.5 -5 t1.5 -9v-20q0 -19 2 -28q2 -10 -12 -14zM423 401q-5 0 -9 4q-12 12 -36 30q-12 7 -4 16q7 12 16 5q24 -15 42 -33q9 -9 0 -18q-3 -4 -9 -4zM420 91q8 8 19 1q9 -9 0 -18q-17 -20 -41 -35q-3 -3 -6 -3q-8 0 -10 7q-8 7 2 17q21 14 36 31zM343 38q4 2 9 -0.5t7 -7.5 q2 -4 -0.5 -9t-7.5 -7q-22 -8 -51 -13h-1q-11 0 -13 10q-2 13 11 16q20 1 46 11zM59 303q-11 4 -9 16q6 22 20 49q6 9 18 6q8 -7 5 -19q-13 -23 -19 -44q-2 -8 -12 -8h-3zM76 170q7 -21 21 -42q5 -11 -4 -18q-3 -1 -7 -1q-7 0 -11 5q-15 28 -22 49q-4 13 9 15q11 4 14 -8z M196 450q-1 0 -2.5 -0.5t-2.5 -0.5q-6 0 -11 7q-5 10 6 18q28 11 52 14q12 2 14 -10q2 -13 -10 -15q-28 -5 -46 -13zM126 90q10 -14 35 -32q11 -6 4 -17q-2 -6 -10 -6q-5 0 -8 3q-17 11 -40 34q-9 8 1 18q9 9 18 0zM119 395q-3 -4 -8 -4q-7 0 -9 2q-7 9 -2 18q15 17 40 37 q12 6 17 -3q8 -11 -2 -17q-13 -10 -36 -33zM491 87q13 0 13 -13v-50q0 -5 -4 -9t-9 -4q-12 0 -12 13v50q0 13 12 13zM491 188q13 0 13 -13v-50q0 -13 -13 -13q-12 0 -12 13v9q-1 -2 -4.5 -8t-4.5 -9q-4 -6 -12 -6l-6 1q-9 7 -3 18q14 28 19 43q2 9 12 9q4 6 11 6zM491 390 q13 0 13 -13v-50q0 -13 -13 -13q-5 0 -8 3h-1h-5q-11 0 -12 7q-18 38 -21 43q-7 10 3 18q11 6 18 -4q1 -2 14 -24v20q0 13 12 13zM491 289q13 0 13 -13v-50q0 -13 -13 -13q-12 0 -12 13v50q0 13 12 13zM491 491q13 0 13 -13v-50q0 -13 -13 -13q-12 0 -12 13v50q0 13 12 13z " />
<glyph unicode="b" horiz-adv-x="660" d="M120 322q-5 2 -5 3q-3 -5 -9 -5q-5 0 -9 3.5t-4 8.5v51q0 13 13 13q12 0 12 -13v-33q9 18 22 34q7 12 16 4q12 -8 4 -18q-15 -18 -24 -42q-1 -7 -11 -7q-4 0 -5 1zM93 129v51q0 13 13 13q12 0 12 -13v-19q0 1 2 1q12 6 16 -6q0 -4 3 -8q4 -13 -7 -16h-2q-2 -1 -3 -1 q-6 0 -9 3v-5q0 -12 -12 -12q-5 0 -9 3.5t-4 8.5zM494 91q-11 8 -3 18q15 19 24 42q7 11 18 6q10 -7 6 -18q-13 -27 -28 -45q-3 -5 -10 -5q-3 0 -7 2zM489 377q-16 20 -35 34q-9 9 -1 18q7 11 18 2q21 -17 38 -38q7 -10 -3 -18q-2 -2 -7 -2q-7 0 -10 4zM529 292 q-6 24 -15 44q-7 10 5 18q12 4 18 -7q10 -23 18 -50q2 -13 -11 -15h-2q-12 0 -13 10zM414 30q-4 10 5 18q24 11 40 27q11 7 18 -3q7 -9 -1 -17q-20 -17 -44 -30q-3 -1 -7 -1q-7 0 -11 6zM174 407q-8 9 1 18q19 16 44 30q10 7 17 -5q7 -11 -5 -18q-23 -12 -39 -26 q-4 -4 -9 -4t-9 5zM179 53q-19 19 -37 40q-7 11 3 17q11 7 18 -2q14 -18 33 -34q9 -10 1 -18q-4 -5 -9 -5q-3 0 -9 2zM543 181h-2q-13 3 -11 16q6 28 6 44v2q-1 6 2.5 9.5t8.5 3.5q12 0 14 -13v-2q0 -10 -5 -50q-2 -10 -13 -10zM93 535v51q0 13 13 13q12 0 12 -13v-51 q0 -13 -12 -13q-5 0 -9 4t-4 9zM260 459q-3 13 9 15q27 8 52 8q14 0 14 -12q0 -5 -3.5 -9t-8.5 -4q-21 0 -47 -7h-4q-8 0 -12 9zM93 231v51q0 12 13 12q12 0 12 -12v-51q0 -13 -12 -13q-13 0 -13 13zM274 6q-26 6 -50 18q-10 8 -5 18q5 9 17 5q19 -11 45 -17q11 -2 9 -15 q-3 -10 -13 -10zM93 637v50q0 13 13 13q12 0 12 -13v-50q0 -13 -12 -13q-13 0 -13 13zM93 434v50q0 13 13 13q12 0 12 -13v-50q0 -13 -12 -13q-13 0 -13 13zM93 28v51q0 12 13 12q12 0 12 -12v-51q0 -13 -12 -13q-5 0 -9 4t-4 9zM415 436q-18 10 -46 17q-13 2 -8 15 q2 11 15 9q33 -8 49 -18q13 -4 7 -16q-6 -8 -12 -8l-2 1h-3zM315 13q0 5 4 8.5t9 3.5q20 0 47 5q11 5 15 -8q3 -12 -9 -16q-34 -6 -53 -6q-13 0 -13 13z" />
<glyph unicode="c" horiz-adv-x="571" d="M306 12q0 14 12 14q27 0 47 5q13 4 15 -9q2 -11 -9 -15q-24 -7 -52 -7v0q-13 0 -13 12zM266 3q-14 3 -51 14q-11 7 -7 17q4 12 16 6q30 -10 47 -13q11 -2 9 -13q0 -12 -12 -12h-1zM405 31q-6 10 5 17q19 8 41 25v0q9 6 17 -2q7 -11 -2 -18q-18 -16 -46 -27q-1 -2 -5 -2 q-9 0 -10 7zM169 41q-22 15 -42 35q-8 8 0 17q10 10 18 0q19 -19 38 -30v0q8 -7 2 -18q-1 -5 -10 -5q-5 0 -6 1zM94 117q-15 24 -22 48q-4 13 8 15q12 5 14 -8q13 -28 22 -42q7 -8 -4 -17q-4 -2 -6 -2q-8 0 -12 6zM60 217q-2 8 -2 29q0 15 2 23q0 11 12 11q12 -2 12 -13v-21 v-28q0 -11 -10 -13h-2q-12 0 -12 12zM79 304q-13 4 -9 17q3 11 22 48q6 9 18 5q10 -8 3 -18q-17 -34 -20 -43q-1 -9 -11 -9h-3zM124 394q-3 2 -3 7.5t2 9.5q17 17 41 34q10 7 17 -2q7 -11 -2 -18q-26 -20 -37 -31q-3 -4 -8 -4q-6 0 -10 4zM447 420q-25 17 -42 24 q-11 5 -6 17q9 11 18 5q27 -12 45 -26q4 -2 4.5 -7.5t-2.5 -9.5q-2 -5 -10 -5q-3 0 -7 2zM204 454q-4 12 6 17q46 13 51 14q13 4 15 -10q0 -10 -10 -14q-22 -5 -45 -14h-6q-10 0 -11 7zM360 459q-10 3 -47 7v0q-13 0 -13 12t13 12q36 -2 53 -5q5 -2 7.5 -7t1.5 -9 q-2 -10 -12 -10h-3z" />
<glyph unicode="d" horiz-adv-x="660" d="M485 328q-11 24 -24 42q-7 9 2 18q12 7 18 -4q8 -11 22 -35v34q0 13 12 13q13 0 13 -13v-51q0 -5 -4 -8.5t-9 -3.5q-7 0 -10 5q-1 -1 -4 -3q-2 -1 -5 -1q-10 0 -11 7zM503 129v5q-3 -3 -9 -3q-1 0 -3 1h-2q-11 3 -7 16q1 1 3 8q4 12 16 6q0 -1 2 -1v19q0 13 12 13 q13 0 13 -13v-51q0 -5 -4 -8.5t-9 -3.5q-12 0 -12 12zM79 282h-3q-12 2 -10 15q6 26 18 50q5 11 17 7q12 -8 6 -18q-9 -20 -15 -44q-3 -10 -13 -10zM429 406q-24 19 -39 26q-12 7 -5 18q6 13 16 5q25 -13 45 -30q10 -9 1 -18q-4 -5 -10 -5q-4 0 -8 4zM115 375q-10 7 -3 18 q17 21 38 38q10 8 18 -2t-3 -18q-19 -17 -33 -34q-3 -4 -10 -4q-5 0 -7 2zM423 56q-7 9 2 18q19 16 33 34q7 9 18 2q4 -2 4.5 -7.5t-2.5 -9.5q-15 -19 -36 -40q-6 -2 -9 -2q-7 0 -10 5zM108 94q-14 20 -26 45q-4 11 6 18q12 6 16 -6q12 -23 24 -42q11 -9 -2 -18q-2 -2 -8 -2 t-10 5zM189 25q-24 13 -44 30q-9 9 -1 17q8 11 17 3q17 -15 40 -27q11 -7 6 -18q-4 -6 -11 -6q-4 0 -7 1zM189 443q-6 12 5 16q22 11 51 18q13 2 15 -9q3 -13 -9 -15q-27 -7 -45 -17h-2q-2 -1 -3 -1q-8 0 -12 8zM503 535v51q0 13 12 13q13 0 13 -13v-51q0 -5 -4 -9t-9 -4 q-12 0 -12 13zM349 450h-4q-26 7 -47 7q-12 0 -12 13q0 12 12 12q27 0 54 -8q12 -2 9 -15q-4 -9 -12 -9zM331 15q-1 5 1.5 9.5t7.5 5.5q29 8 45 17q12 4 17 -5q5 -10 -6 -18q-22 -12 -49 -18q-2 -1 -4 -1q-9 0 -12 10zM293 0q-19 0 -53 6q-12 3 -10 16q4 13 16 8 q23 -5 47 -5q5 0 9 -3.5t4 -8.5q0 -13 -13 -13zM65 191q-5 40 -5 50v2q0 13 13 13q12 0 12 -13v-2q0 -9 5 -44q3 -12 -10 -16h-2q-11 0 -13 10zM503 231v51q0 12 12 12q13 0 13 -12v-51q0 -13 -13 -13q-12 0 -12 13zM503 637v50q0 13 12 13q13 0 13 -13v-50q0 -13 -13 -13 q-12 0 -12 13zM503 434v50q0 13 12 13q13 0 13 -13v-50q0 -13 -13 -13q-12 0 -12 13zM503 28v51q0 12 12 12q13 0 13 -12v-51q0 -5 -4 -9t-9 -4q-12 0 -12 13z" />
<glyph unicode="e" horiz-adv-x="609" d="M129 248h-49q-6 0 -9 3q-14 4 -12 14q3 29 10 51q3 13 16 9q10 -2 8 -15q-6 -19 -8 -38h44q13 0 13 -12t-13 -12zM466 374q-15 22 -32 35q-9 9 0 18t19 1q15 -15 35 -40q7 -11 -5 -18q-4 -2 -7 -2q-5 0 -10 6zM397 437q-26 13 -44 19q-12 4 -7 15q2 13 15 9 q31 -11 49 -20q9 -6 5 -18q-4 -6 -11 -6q-6 0 -7 1zM442 69q-9 9 0 18q19 19 30 38q8 8 18 3q10 -6 4 -17q-14 -20 -34 -42q-1 -4 -9 -4q-5 0 -9 4zM127 71q-23 27 -31 42q-7 12 3 18q11 5 18 -4q9 -18 29 -38q8 -9 -1 -18q-3 -3 -8 -3q-7 0 -10 3zM502 286q-2 17 -12 47 q-6 10 6 16t17 -8q9 -22 14 -50q4 -11 -9 -15h-3q-9 0 -13 10zM266 1q-12 4 -9 14q0 12 13 12q8 -2 25 -2q16 0 22 2q13 0 13 -12q2 -5 -1.5 -9.5t-8.5 -4.5q-8 -1 -25 -1q-19 0 -29 1zM215 14q-30 11 -46 24q-12 5 -4 17q6 11 18 4q19 -14 41 -21q5 -2 7 -7t0 -9 q-1 -9 -11 -9l-2 1h-3zM245 471q-2 13 10 15q28 4 40 4q9 0 13 -2q12 0 12 -12q-2 -13 -14 -13q-3 2 -11 2q-13 0 -35 -4h-3q-10 0 -12 10zM94 349q-12 6 -5 16q11 20 31 44q7 8 17 2q9 -9 1 -19q-7 -8 -28 -38q0 -8 -9 -8q-1 0 -7 3zM156 427q-8 12 3 17q14 11 46 27 q12 6 16 -6q5 -12 -6 -17q-13 -5 -42 -23q-3 -3 -7 -3q-6 0 -10 5zM355 20q-3 12 8 16q15 5 43 21q12 6 17 -5q8 -8 -3 -16q-27 -15 -48 -23h-5q-9 0 -12 7zM73 161q-9 24 -12 51q-3 14 11 14q5 1 9 -2.5t4 -7.5q2 -19 11 -47q3 -10 -8 -16h-3q-10 0 -12 8zM230 248h-50 q-13 0 -13 12t13 12h50q13 0 13 -12t-13 -12zM431 248h-51q-12 0 -12 12t12 12h51q12 0 12 -12t-12 -12zM330 248h-50q-12 0 -12 12t12 12h50q13 0 13 -12t-13 -12zM519 248h-38q-12 0 -12 12t12 12h38q13 0 13 -12t-13 -12z" />
<glyph unicode="f" horiz-adv-x="362" d="M128 492q13 0 13 -12q0 -13 -13 -13h-51q-12 0 -12 13q0 12 12 12h51zM229 492q13 0 13 -12q0 -13 -13 -13h-50q-13 0 -13 13q0 12 13 12h50zM154 481q13 0 13 -12v-51q0 -13 -13 -13t-13 13v51q0 12 13 12zM154 380q13 0 13 -13v-50q0 -13 -13 -13t-13 13v50q0 13 13 13 zM157 608q-11 4 -9 16q10 32 28 49q9 9 18 0q9 -11 -1 -18q-13 -12 -20 -38q-3 -9 -12 -9h-4zM154 279q13 0 13 -13v-51q0 -12 -13 -12t-13 12v51q0 13 13 13zM263 700q13 0 13 -13q0 -12 -13 -12q-16 0 -31 -3h-2q-10 0 -12 11q-2 4 1.5 8.5t8.5 5.5q16 3 35 3zM154 507 q-13 0 -13 13v39v12q2 12 13 12q13 0 13 -13v-11v-39q0 -13 -13 -13zM154 177q13 0 13 -12v-51q0 -13 -13 -13t-13 13v51q0 12 13 12zM154 76q13 0 13 -13v-50q0 -13 -13 -13t-13 13v50q0 13 13 13z" />
<glyph unicode="g" horiz-adv-x="660" d="M281 -209q-18 0 -54 8q-11 4 -8 16q4 11 16 9q24 -8 47 -8q14 -2 11 -14q0 -11 -11 -11h-1zM319 -196q-1 5 2 9.5t8 5.5q20 3 45 14q12 3 18 -6q5 -12 -7 -17q-23 -11 -51 -16h-3q-10 0 -12 10zM414 -161q-7 12 2 18q20 16 35 33v0q9 9 17 1q12 -7 3 -18q-18 -20 -39 -36 q-4 -3 -8 -3q-5 0 -10 5zM482 -87q-5 2 -6.5 6.5t1.5 9.5q11 18 17 46q2 11 15 9q13 -4 9 -15q-6 -27 -18 -51q-5 -7 -11 -7q-4 0 -7 2zM513 9q-13 0 -13 13v2v49q0 12 13 12q5 0 8.5 -3.5t3.5 -8.5v-49v-2q0 -13 -12 -13v0zM500 123v51q0 13 13 13q4 0 8 -4t4 -9v-51 q0 -12 -12 -12q-13 0 -13 12zM500 225v50q0 13 13 13q5 0 8.5 -4t3.5 -9v-50q0 -13 -12 -13q-13 0 -13 13zM500 326v51q0 13 13 13q4 0 8 -4t4 -9v-51q0 -5 -3.5 -9t-8.5 -4q-13 0 -13 13zM500 428v50q0 13 13 13q5 0 8.5 -4t3.5 -9v-50q0 -13 -12 -13q-13 0 -13 13zM257 -1 q-13 2 -11 15q4 13 14 10q24 -2 33 -2h16q11 2 13 -12q0 -11 -12 -14h-17q-3 0 -36 3zM347 15q-3 12 8 17q25 8 44 20v0q8 6 16 -4q8 -12 -4 -17q-24 -16 -48 -23h-1q-2 -1 -3 -1q-9 0 -12 8zM206 14q-27 13 -47 27q-9 7 -3 18q7 11 18 2q24 -17 41 -24v0q12 -5 7 -16 q-4 -8 -12 -8q-1 0 -2 1h-2zM435 64q-9 8 0 17q18 18 31 38v0q1 4 6.5 5.5t9.5 -1.5q11 -6 4 -18q-14 -24 -33 -41q-3 -4 -9 -4q-5 0 -9 4zM120 78q-20 24 -31 44q-4 13 7 16q9 7 16 -5q16 -28 27 -39v0q9 -9 -2 -18q-3 -3 -7 -3q-7 0 -10 5zM70 171q-9 29 -10 52 q0 12 11 14q14 0 14 -12q4 -32 9 -47q4 -13 -9 -15q-1 -2 -3 -2q-10 0 -12 10zM73 263q-14 0 -12 14q5 30 13 52q1 5 6 7t9 0q12 -3 8 -16q-7 -20 -10 -47q-3 -10 -13 -10h-1zM471 358q-13 22 -28 39q-9 9 1 18q8 9 18 -1q23 -28 32 -43q4 -13 -5 -17q-6 -2 -7 -2 q-8 0 -11 6zM101 359q-12 7 -5 18q18 26 32 42q9 8 18 1q10 -10 0 -19q-16 -17 -29 -38q-1 -5 -10 -5q-5 0 -6 1zM407 429q-14 10 -41 23q-5 2 -7.5 7t-0.5 9q5 12 16 8q27 -13 47 -27q11 -6 4 -18q-5 -5 -10 -5q-1 0 -4 1.5t-4 1.5zM165 436q-6 9 4 17q25 17 48 24 q12 5 17 -8q2 -5 -1 -9.5t-7 -5.5q-27 -11 -43 -21v0q-5 -3 -6 -3q-6 0 -12 6zM320 463l-27 3q-14 0 -21 -2v0q-12 -2 -14 12q0 10 11 14q8 1 24 1q17 0 29 -3q6 0 9.5 -4t2.5 -9q-2 -12 -13 -12h-1z" />
<glyph unicode="h" horiz-adv-x="613" d="M107 304h-1q-12 2 -12 15q0 4 1 6q-2 2 -2 8v51q0 5 4 8.5t9 3.5q12 0 12 -12v-6q4 0 7 -1q12 -4 6 -16q-8 -23 -11 -46q0 -11 -13 -11zM93 114v51v2v14q0 5 4 9t9 4q12 0 12 -13v-51v-3v-13q0 -13 -12 -13q-5 0 -9 4t-4 9zM93 215v51v2v14q0 13 13 13q12 0 12 -13v-50 v-3v-14q0 -12 -12 -12q-5 0 -9 3.5t-4 8.5zM93 13v14v2v51q0 5 4 8.5t9 3.5q12 0 12 -12v-67q0 -13 -12 -13q-13 0 -13 13zM213 465q-3 10 8 16q21 8 52 13q14 0 14 -12q1 -5 -2.5 -9.5t-9.5 -4.5q-23 -1 -45 -11h-5q-8 0 -12 8zM437 390q-12 19 -30 35q-10 9 -1 18 q2 4 7.5 4.5t9.5 -3.5q21 -18 36 -40q6 -10 -4 -18q-3 -1 -8 -1q-6 0 -10 5zM137 400q-8 7 -2 18q16 20 38 36q11 9 17 -2q10 -8 -2 -18q-16 -11 -33 -33q-6 -4 -10 -4q-5 0 -8 3zM465 301q-1 18 -7 46q-5 12 7 16q11 6 17 -9q6 -20 8 -53q0 -12 -12 -12q-13 0 -13 12z M368 452q-23 10 -46 14q-12 2 -10 15q2 12 15 10q32 -7 51 -16q11 -7 6 -18q-3 -6 -11 -6q-4 0 -5 1zM93 637v50q0 13 13 13q12 0 12 -13v-50q0 -13 -12 -13q-13 0 -13 13zM465 99v50q0 13 13 13q12 0 12 -13v-50q0 -5 -3.5 -9t-8.5 -4q-13 0 -13 13zM93 535v51q0 5 4 9t9 4 q12 0 12 -13v-51q0 -12 -12 -12q-13 0 -13 12zM465 200v51q0 12 13 12q12 0 12 -12v-51q0 -5 -4 -9t-8 -4q-13 0 -13 13zM93 434v51q0 5 4 8.5t9 3.5q12 0 12 -12v-51q0 -12 -12 -12q-13 0 -13 12zM465 13v35q0 13 13 13q12 0 12 -13v-35q0 -5 -3.5 -9t-8.5 -4q-13 0 -13 13 z" />
<glyph unicode="i" horiz-adv-x="281" d="M94 13v52q0 13 13 13t13 -13v-52q0 -13 -13 -13t-13 13zM94 116v52q0 13 13 13t13 -13v-52q0 -5 -4 -8.5t-9 -3.5t-9 3.5t-4 8.5zM94 220v52q0 13 13 13t13 -13v-52q0 -5 -4 -9t-9 -4t-9 4t-4 9zM94 324v51q0 13 13 13t13 -13v-51q0 -5 -4 -9t-9 -4t-9 4t-4 9zM94 427v52 q0 13 13 13t13 -13v-52q0 -5 -4 -9t-9 -4t-9 4t-4 9zM94 613v24q0 13 13 13t13 -13v-24q0 -13 -13 -13t-13 13z" />
<glyph unicode="j" horiz-adv-x="249" d="M62 613v25q0 12 12 12q13 0 13 -12v-25q0 -13 -13 -13q-4 0 -8 4t-4 9zM-5 -203q0 14 12 14h2q13 0 13 -14q0 -12 -12 -12h-3q-12 0 -12 12zM47 -190q-4 2 -4.5 7.5t3.5 9.5q13 16 13 34v3q0 13 12 13q14 0 14 -13v-3q0 -28 -21 -51q-3 -4 -9 -4q-5 0 -8 4zM59 -84v50 q0 14 12 14q14 0 14 -14v-50q0 -13 -14 -13q-4 0 -8 4t-4 9zM59 19v52q0 12 12 12q14 0 14 -12v-52q0 -12 -14 -12q-5 0 -8.5 3.5t-3.5 8.5zM59 121v52q0 13 12 13q14 0 14 -13v-52q0 -12 -14 -12q-5 0 -8.5 3.5t-3.5 8.5zM59 224v52q0 12 12 12q14 0 14 -12v-52 q0 -13 -14 -13q-4 0 -8 4t-4 9zM59 326v52q0 12 12 12q14 0 14 -12v-52q0 -12 -14 -12q-5 0 -8.5 4t-3.5 8zM59 428v53q0 13 12 13q14 0 14 -13v-53q0 -12 -14 -12q-5 0 -8.5 4t-3.5 8z" />
<glyph unicode="k" horiz-adv-x="560" d="M93 130v51q0 13 13 13q4 0 8 -4t4 -9v-13l21 22q9 8 17 0q10 -10 0 -18l-35 -37q-2 -2 -3 -2v-3q0 -12 -12 -12q-13 0 -13 12zM396 58l-33 39q-7 10 1 18q11 7 19 -2l32 -38q5 -12 -2 -19q-3 -3 -9 -3t-8 5zM266 214l-32 39q-9 11 2 18q8 9 18 -1l31 -40q4 -4 3.5 -9.5 t-4.5 -7.5q-2 -3 -9 -3q-5 0 -9 4zM317 351q-9 9 0 17l37 36q8 8 17 0q11 -9 0 -18l-35 -35q-3 -4 -10 -4q-5 0 -9 4zM246 278q-9 11 0 18l36 37q8 9 17 0t0 -18l-35 -37q-4 -3 -9 -3t-9 3zM93 333v51q0 12 13 12q4 0 8 -4t4 -8v-51q0 -13 -12 -13q-13 0 -13 13zM93 637v50 q0 13 13 13q5 0 8.5 -4t3.5 -9v-50q0 -13 -12 -13q-13 0 -13 13zM93 232v50q0 13 13 13q5 0 8.5 -4t3.5 -9v-50q0 -13 -12 -13q-13 0 -13 13zM93 29v51q0 12 13 12q4 0 8 -4t4 -8v-51q0 -5 -3.5 -9t-8.5 -4q-13 0 -13 13zM93 535v51q0 13 13 13q4 0 8 -4t4 -9v-51 q0 -12 -12 -12q-13 0 -13 12zM174 208q-8 8 0 17l37 36q8 9 17 0q11 -9 0 -18l-36 -35q-4 -4 -9 -4t-9 4zM389 423q-9 7 0 18l36 35q9 8 17 0q9 -9 0 -18l-35 -35q-4 -4 -9 -4t-9 4zM331 137l-33 38q-8 12 3 17q8 8 17 -1l32 -39q8 -8 -1 -18q-6 -2 -9 -2q-5 0 -9 5zM93 434 v51q0 12 13 12q4 0 8 -3.5t4 -8.5v-51q0 -12 -12 -12q-13 0 -13 12zM439 5l-12 14q-9 9 1 18q11 8 18 -2l12 -13q7 -10 -2 -18q-3 -4 -7 -4q-5 0 -10 5z" />
<glyph unicode="l" horiz-adv-x="249" d="M100 13v52q0 13 13 13t13 -13v-52q0 -13 -13 -13t-13 13zM100 117v52q0 12 13 12t13 -12v-52q0 -13 -13 -13t-13 13zM100 220v52q0 13 13 13t13 -13v-52q0 -13 -13 -13t-13 13zM100 324v52q0 13 13 13t13 -13v-52q0 -13 -13 -13t-13 13zM100 428v52q0 13 13 13t13 -13 v-52q0 -13 -13 -13t-13 13zM100 531v52q0 13 13 13t13 -13v-52q0 -12 -13 -12t-13 12zM100 635v52q0 13 13 13t13 -13v-52q0 -13 -13 -13t-13 13z" />
<glyph unicode="m" horiz-adv-x="951" d="M461 297q0 23 -8 47q-2 13 9 15q6 2 10 -1q0 1 2 4t2 5q4 11 16 7q10 -5 6 -16q-8 -24 -11 -46q0 -4 -2 -6v-8q1 -5 -2.5 -8.5t-7.5 -3.5h-1q-11 0 -13 11zM107 301h-1q-14 0 -12 14v4q-1 2 -1 7v50q0 12 13 12q12 0 12 -12v-2h7q10 -5 6 -16q-11 -28 -11 -46 q-4 -11 -13 -11zM462 97v10q-1 2 -1 6v50q0 5 4 9t9 4q11 0 11 -13v-9q2 -4 2 -6v-51q0 -5 -4 -8.5t-8 -3.5q-13 0 -13 12zM462 199v9q-1 1 -1 5v50q0 5 4 9t9 4q11 0 11 -13v-9q2 -4 2 -6v-49q0 -6 -4 -9.5t-8 -3.5q-13 0 -13 13zM93 113v50v2v11q0 12 13 12q12 0 12 -12 v-11v-2v-50q0 -13 -12 -13q-13 0 -13 13zM93 13v10v2v38v2v11q0 4 3.5 8t9.5 4q5 0 8.5 -4t3.5 -8v-11v-2v-50q0 -13 -12 -13q-13 0 -13 13zM93 213v50v2v11q0 12 13 12q12 0 12 -12v-11v-2v-50q0 -12 -12 -12q-13 0 -13 12zM504 394q-8 8 -3 19q24 26 40 37q8 7 17 -2 q6 -10 -2 -18q-21 -16 -34 -33q-5 -5 -11 -5q-1 0 -3.5 1t-3.5 1zM461 13v50q0 13 13 13q11 0 11 -13v-10q2 -4 2 -7v-33q0 -13 -11 -13h-2h-2q-11 0 -11 13zM93 426v51q0 12 13 12q12 0 12 -12v-51q0 -13 -12 -13q-13 0 -13 13zM137 394q-10 8 -3 19q24 26 37 37 q13 7 18 -2q8 -11 -2 -18q-20 -15 -32 -33q-5 -5 -10 -5q-2 0 -4.5 1t-3.5 1zM829 97v51q0 13 13 13q4 0 8 -4t4 -9v-51q0 -12 -12 -12q-13 0 -13 12zM732 446q-14 9 -45 16q-12 2 -10 13q1 11 15 11q28 -5 51 -17q10 -3 6 -16q-3 -8 -11 -8q-4 0 -6 1zM829 297q-1 17 -7 47 q-2 4 0 9t7 6q12 5 16 -7q8 -29 9 -54q0 -12 -12 -12q-13 0 -13 11zM364 446q-11 6 -43 16q-14 2 -10 13q0 11 14 11q25 -4 50 -17q12 -4 6 -16q-3 -8 -11 -8q-4 0 -6 1zM212 459q-5 13 7 16q23 10 52 13q12 2 14 -11q0 -12 -12 -14q-21 -1 -45 -10l-4 -2q-10 0 -12 8z M579 459q-3 12 8 16q23 10 51 13q14 2 14 -11q2 -12 -12 -14q-20 -2 -44 -10q-1 -2 -5 -2q-7 0 -12 8zM829 199v49q0 12 13 12q4 0 8 -4t4 -8v-49q0 -13 -12 -13q-13 0 -13 13zM801 385q-9 16 -29 36q-11 7 -2 18q9 9 18 1q13 -13 35 -41q6 -10 -4 -16q-2 -2 -8 -2t-10 4z M434 385q-9 16 -31 36q-9 8 -1 18q8 8 17 1q20 -19 36 -41q6 -11 -4 -16q-1 -2 -6 -2q-8 0 -11 4zM829 13v35q0 12 13 12q4 0 8 -4t4 -8v-35q0 -13 -12 -13q-13 0 -13 13z" />
<glyph unicode="n" horiz-adv-x="613" d="M107 302h-1q-14 0 -12 14v4q-1 2 -1 7v50q0 12 13 12q4 0 8 -3.5t4 -8.5v-2q3 0 5 -1q11 -4 8 -16q-11 -24 -11 -45q-3 -11 -13 -11zM93 213v51v2v10q0 13 13 13q5 0 8.5 -4t3.5 -9v-63q0 -12 -12 -12q-13 0 -13 12zM93 13v9v3v38v2v11q0 12 13 12q4 0 8 -4t4 -8v-11v-2 v-38v-3v-9q0 -13 -12 -13q-13 0 -13 13zM93 113v50v2v11q0 12 13 12q4 0 8 -4t4 -8v-51v-3v-9q0 -12 -12 -12q-13 0 -13 12zM433 386q-8 14 -30 36q-9 7 -1 18q8 6 18 1q20 -20 35 -41q7 -12 -4 -18q-2 -1 -6 -1q-8 0 -12 5zM461 97v50q0 13 13 13q12 0 12 -13v-50 q0 -13 -12 -13q-13 0 -13 13zM136 395q-10 10 -2 19q18 21 38 37q10 8 18 -2q6 -11 -3 -18q-21 -17 -34 -33q-3 -5 -10 -5q-1 0 -3.5 1t-3.5 1zM93 427v50q0 13 13 13q5 0 8.5 -4t3.5 -9v-50q0 -13 -12 -13q-13 0 -13 13zM461 297q0 23 -8 47q-4 13 10 15q4 2 8.5 0t5.5 -7 q9 -32 9 -53q0 -12 -11 -14h-1q-5 0 -9 3.5t-4 8.5zM461 197v51q0 12 13 12q12 0 12 -12v-51q0 -12 -12 -12q-5 0 -9 3.5t-4 8.5zM213 460q-5 12 5 16q29 10 53 13q12 2 14 -12q0 -10 -11 -14q-11 0 -47 -9q-1 -2 -3 -2q-11 0 -11 8zM365 447q-6 3 -45 16q-5 0 -8 4t-1 9 q0 12 13 10q20 -2 52 -16q11 -4 5 -16q-3 -8 -12 -8q-4 0 -4 1zM461 13v33q0 13 13 13q12 0 12 -13v-33q0 -13 -12 -13q-13 0 -13 13z" />
<glyph unicode="o" horiz-adv-x="625" d="M293 13q-1 4 2.5 8t8.5 4q26 0 47 6q11 3 16 -9q0 -12 -9 -16q-36 -6 -53 -6v0q-12 0 -12 13zM252 5q-34 9 -50 19q-11 5 -7 16q7 11 18 6q18 -9 44 -16q14 -2 10 -15q-2 -10 -12 -10h-3zM389 31q-4 10 5 18q28 16 39 27q10 8 18 -2q9 -9 -2 -17q-16 -16 -42 -30 q-3 -2 -7 -2q-8 0 -11 6zM158 52q-24 20 -36 40q-9 8 2 17q8 7 17 -2q7 -10 33 -36q8 -5 2 -17q-6 -4 -11 -4q-1 0 -3.5 1t-3.5 1zM468 93q-11 8 -3 18q11 13 24 41q4 11 16 6q11 -4 7 -16q-7 -16 -26 -47q-5 -5 -10 -5q-2 0 -4.5 1.5t-3.5 1.5zM94 137q-8 15 -18 49 q-2 11 10 15q4 2 9 -1t6 -8q6 -24 15 -45q3 -5 1 -9.5t-7 -6.5q-1 -2 -5 -2q-6 0 -11 8zM512 182q-11 2 -9 15q4 20 4 48v10q0 11 13 14q13 0 13 -13v-11q0 -27 -6 -53q-2 -10 -13 -10h-2zM70 239v6q0 27 5 46q1 5 5.5 8.5t8.5 2.5q12 -3 10 -16q-4 -28 -4 -41v-5 q0 -14 -11 -14h-1q-13 0 -13 13zM501 303q-6 23 -17 43q-5 11 5 17q11 7 18 -5q12 -27 18 -49q2 -12 -9 -16h-4q-9 0 -11 10zM97 325q-13 6 -8 17q18 37 25 46q6 11 18 4q10 -6 3 -18q-14 -21 -22 -41v0q-5 -9 -12 -9zM458 387q-12 17 -32 34q-9 7 -3 17q8 9 17 2 q21 -15 38 -38q9 -8 -1 -18q-4 -2 -9 -2t-10 5zM148 411q-7 9 1 17q18 18 43 32q4 2 9.5 1t6.5 -5q6 -10 -4 -18q-11 -6 -39 -27q-3 -4 -7 -4q-7 0 -10 4zM386 446q-17 7 -44 15q-13 3 -11 14q2 12 15 10q28 -6 51 -17q11 -5 5 -17q-4 -7 -11 -7q-5 0 -5 2zM232 465 q-4 13 9 16q24 7 52 9q13 0 13 -13q0 -12 -13 -12q-30 -4 -46 -8l-3 -1q-10 0 -12 9z" />
<glyph unicode="p" horiz-adv-x="660" d="M140 98q-11 12 -22 36v-35q0 -12 -12 -12q-5 0 -9 3.5t-4 8.5v51q0 13 13 13q6 0 9 -5q1 1 5 3q12 6 16 -6q7 -17 24 -42q8 -11 -2 -17q-4 -3 -8 -3q-8 0 -10 5zM120 321q-2 0 -2 1v-20q0 -13 -12 -13q-5 0 -9 4t-4 9v51q0 12 13 12q12 0 12 -12v-6q6 8 14 3q11 -3 7 -16 q-3 -4 -3 -7q-3 -7 -11 -7q-4 0 -5 1zM218 441q-4 12 7 17q21 13 49 19q13 2 15 -9q4 -11 -9 -17q-13 -2 -44 -15q-4 -2 -6 -2q-8 0 -12 7zM515 332q-14 28 -25 41q-6 11 3 18q10 9 18 -3q16 -20 28 -46q4 -11 -7 -16q-2 -1 -5 -1q-9 0 -12 7zM145 373q-8 6 -3 18 q16 18 37 38q10 8 18 -2q4 -4 3.5 -9.5t-4.5 -7.5q-21 -19 -33 -36q-6 -4 -11 -4t-7 3zM218 29q-24 11 -43 30q-4 3 -4.5 8.5t3.5 9.5q9 9 18 1q13 -13 39 -28q5 -2 6.5 -6.5t-1.5 -9.5q-3 -8 -11 -8q-2 0 -7 3zM518 130q-5 2 -6.5 6.5t1.5 9.5q11 21 15 46q4 12 16 9 q12 -4 10 -15q-9 -34 -18 -50q-3 -7 -11 -7q-4 0 -7 1zM547 226h-1q-5 0 -8.5 4t-2.5 9v2q0 9 -5 46q-4 13 10 15q9 2 15 -10q5 -28 5 -51v-2q-2 -13 -13 -13zM378 451h-4q-26 7 -47 7q-12 0 -12 12q0 5 3.5 9t8.5 4q21 0 53 -6q13 -6 9 -16q-2 -10 -11 -10zM452 54 q-2 4 -2 9.5t4 8.5q22 18 34 34q8 10 18 2q9 -9 2 -17q-17 -21 -38 -38q-3 -4 -7 -4q-6 0 -11 5zM360 16q-1 4 1.5 9t7.5 6q20 4 46 15q10 5 16 -6q7 -11 -5 -16q-27 -13 -51 -18h-4q-9 0 -11 10zM93 -204v50q0 13 13 13q12 0 12 -13v-50q0 -13 -12 -13q-13 0 -13 13z M93 201v50q0 13 13 13q12 0 12 -13v-50q0 -13 -12 -13q-13 0 -13 13zM93 -103v51q0 12 13 12q12 0 12 -12v-51q0 -13 -12 -13q-5 0 -9 4t-4 9zM93 403v51q0 13 13 13q12 0 12 -13v-51q0 -12 -12 -12q-5 0 -9 3.5t-4 8.5zM459 408q-24 18 -39 27q-11 6 -7 16q6 11 18 7 q26 -16 44 -31q4 -2 4 -7.5t-2 -9.5q-4 -4 -11 -4q-5 0 -7 2zM322 1q-16 0 -53 7q-13 3 -9 16q1 5 5.5 7.5t9.5 0.5q30 -6 47 -6q5 0 9 -4t4 -9q0 -12 -13 -12zM93 -2v51q0 12 13 12q12 0 12 -12v-51q0 -12 -12 -12q-5 0 -9 3.5t-4 8.5z" />
<glyph unicode="q" horiz-adv-x="660" d="M501 101v34q-10 -20 -22 -35q-4 -5 -10 -5q-5 0 -6 3q-12 5 -4 17q11 15 24 42q4 12 16 6q2 -1 4 -3q3 5 10 5q13 0 13 -13v-51q0 -4 -4 -8t-9 -4q-12 0 -12 12zM501 304v20l-2 -1q-1 -1 -5 -1q-8 0 -11 7q0 3 -3 7q-4 13 7 16q7 4 14 -3v6q0 12 12 12q13 0 13 -12v-51 q0 -4 -4 -8.5t-9 -4.5q-12 0 -12 13zM384 438q-34 14 -46 15q-11 5 -8 17q2 11 15 9q27 -6 50 -19q11 -5 6 -17q-4 -7 -12 -7q-3 0 -5 2zM383 36q-3 5 -1.5 9.5t6.5 6.5q26 15 39 28q9 8 18 -1q4 -4 3.5 -9.5t-4.5 -8.5q-19 -19 -43 -30q-5 -3 -7 -3q-8 0 -11 8zM456 376 q-15 20 -33 36q-4 2 -4.5 7.5t3.5 9.5q9 11 18 2q21 -18 36 -40q7 -8 -2 -17q-4 -3 -8 -3q-2 0 -10 5zM142 412q-9 11 2 17q14 13 44 31q12 4 18 -7q4 -10 -5 -16q-17 -8 -41 -27q-1 -2 -8 -2q-6 0 -10 4zM87 328q-11 5 -7 16q12 26 28 46q7 11 18 3q9 -7 2 -18 q-14 -18 -24 -41q-3 -7 -11 -7q-4 0 -6 1zM230 463q-4 10 8 16q36 6 54 6q5 0 8.5 -4t3.5 -9q0 -12 -12 -12q-21 0 -47 -7h-4q-9 0 -11 10zM284 15q0 13 13 13q15 0 47 6q11 5 15 -8q4 -12 -9 -16q-24 -7 -52 -7h-1q-13 0 -13 12zM83 138q-10 19 -17 50q-3 11 9 15 q5 1 9.5 -1.5t5.5 -7.5q6 -26 16 -46q6 -12 -5 -16q-3 -1 -7 -1q-8 0 -11 7zM60 241v2q0 30 5 51q2 12 14 10t10 -15q-4 -28 -4 -46v-2q0 -5 -3.5 -9t-8.5 -4q-13 0 -13 13zM501 -202v50q0 13 12 13q13 0 13 -13v-50q0 -5 -4 -9t-9 -4q-12 0 -12 13zM501 203v50q0 13 12 13 q13 0 13 -13v-50q0 -5 -4 -9t-9 -4q-12 0 -12 13zM501 -101v51q0 12 12 12q13 0 13 -12v-51q0 -5 -4 -9t-9 -4q-12 0 -12 13zM501 405v51q0 13 12 13q5 0 9 -4t4 -9v-51q0 -4 -4 -8t-9 -4q-12 0 -12 12zM149 55q-21 17 -38 38q-7 8 2 17q11 9 18 -2q15 -19 34 -34 q9 -8 1 -18q-3 -4 -10 -4q-5 0 -7 3zM247 8h-3q-29 7 -50 18q-5 2 -7 6.5t1 9.5q4 12 16 6q27 -12 46 -15q5 -1 7.5 -6t1.5 -9q-3 -10 -12 -10zM501 0v51q0 12 12 12q13 0 13 -12v-51q0 -4 -4 -8t-9 -4q-12 0 -12 12z" />
<glyph unicode="r" horiz-adv-x="439" d="M93 219v22v1v29q0 13 13 13h2l4 8q4 12 16 7q12 -3 8 -17q-10 -22 -17 -43v-20q0 -12 -13 -12t-13 12zM140 323q-12 4 -5 16q18 32 29 46q7 10 18 3q9 -9 3 -19q-13 -18 -27 -41q-5 -8 -12 -8zM199 406q-9 11 0 20l43 34q12 4 18 -6q3 -4 1.5 -9.5t-5.5 -7.5 q-19 -11 -39 -31q-3 -3 -9 -3q-4 0 -9 3zM93 116v52q0 13 13 13q5 0 9 -4t4 -9v-52q0 -5 -4 -9t-9 -4q-13 0 -13 13zM93 426v52q0 13 13 13q4 0 8.5 -4.5t4.5 -8.5v-52q0 -13 -13 -13t-13 13zM93 323v51q0 14 13 14q5 0 9 -4.5t4 -9.5v-51q0 -13 -13 -13t-13 13zM93 13v51 q0 14 13 14q5 0 9 -4.5t4 -9.5v-51q0 -13 -13 -13t-13 13zM283 466q-4 12 9 15q23 7 54 10q5 0 9 -4t4 -9q0 -13 -13 -13q-32 -4 -47 -8q0 -1 -3 -1q-11 0 -13 10z" />
<glyph unicode="s" horiz-adv-x="492" d="M179 5q-12 2 -10 14q2 13 15 11q16 -3 34 -3h13v0q13 0 13 -12q0 -13 -12 -13q-2 0 -7 -0.5t-7 -0.5q-13 0 -39 4zM269 19q-3 12 8 16q21 7 43 20q11 5 17 -4q7 -11 -4 -18q-17 -11 -48 -22h-4q-9 0 -12 8zM129 19q-24 10 -47 23q-10 7 -5 17q7 10 18 5q20 -12 43 -21v0 q10 -5 7 -17q-3 -8 -12 -8q-1 0 -2 0.5t-2 0.5zM356 68q-11 7 -3 17q14 21 17 40q0 5 4.5 8.5t9.5 2.5q11 -2 11 -14q-5 -29 -22 -52q-3 -5 -10 -5q-4 0 -7 3zM363 167q-9 17 -29 33q-11 7 -3 17q7 10 18 3q26 -21 36 -42q6 -12 -5 -17q-2 -1 -6 -1q-8 0 -11 7zM292 222 q-26 9 -46 14q-13 4 -9 16t15 9q28 -8 50 -16q11 -4 7 -16q-3 -8 -12 -8q-3 0 -5 1zM197 247q-34 8 -50 14q-12 4 -7 16q4 12 16 7q16 -6 47 -13q5 -1 7.5 -5.5t1.5 -9.5q-2 -10 -12 -10q-2 0 -3 1zM100 284q-25 16 -39 41v0q-5 10 5 17q12 5 17 -6q12 -19 31 -31 q10 -8 3 -17q-3 -6 -10 -6q-3 0 -7 2zM63 367q-13 2 -11 14q4 28 23 51q9 11 18 2q9 -7 2 -18q-15 -18 -18 -39q-2 -10 -13 -10h-1zM352 414q-33 21 -42 26q-11 5 -5 17q5 11 17 5q16 -9 44 -27v0q9 -7 3 -17q-3 -6 -10 -6q-3 0 -7 2zM113 450q-8 12 5 17q26 14 50 19v0 q11 4 15 -9q2 -13 -10 -15q-21 -5 -43 -17q-4 -2 -6 -2q-8 0 -11 7zM266 459q-25 7 -46 7q-12 0 -12 13q0 5 4 9t9 3q26 0 52 -8v0q13 -4 9 -16q-4 -9 -12 -9q-3 0 -4 1z" />
<glyph unicode="t" horiz-adv-x="400" d="M175 466q-13 0 -13 12q0 13 13 13h50q13 0 13 -13q0 -12 -13 -12h-50zM55 466q-13 0 -13 12q0 13 13 13h50q13 0 13 -13q0 -12 -13 -12h-50zM202 -1q-13 0 -13 13q0 12 13 12h2q12 0 12 -13q0 -12 -12 -12h-2zM148 23q-21 23 -21 52v3q0 13 13 13t13 -13v-3q0 -20 13 -35 q9 -9 0 -18q-4 -3 -9 -3q-6 0 -9 4zM127 129v50q0 13 13 13t13 -13v-50q0 -13 -13 -13t-13 13zM127 230v51q0 12 13 12t13 -12v-51q0 -13 -13 -13t-13 13zM127 331v51q0 13 13 13t13 -13v-51q0 -12 -13 -12t-13 12zM127 433v50q0 13 13 13t13 -13v-50q0 -13 -13 -13t-13 13z M127 534v51q0 12 13 12t13 -12v-51q0 -13 -13 -13t-13 13zM127 635v51q0 13 13 13t13 -13v-51q0 -12 -13 -12t-13 12z" />
<glyph unicode="u" horiz-adv-x="613" d="M285 11q-2 14 12 14q27 3 45 11q10 5 16 -7q5 -12 -8 -16q-17 -7 -51 -13h-1q-13 0 -13 11zM245 3q-29 5 -50 16q-12 6 -6 17q6 14 16 5q23 -10 45 -14q5 0 8.5 -4.5t1.5 -9.5q-1 -10 -12 -10h-3zM381 41q-9 9 2 18q19 13 33 33q9 9 18 3q9 -9 2 -19q-17 -22 -37 -37 q-3 -3 -8 -3q-7 0 -10 5zM150 49q-22 19 -35 40q-8 9 3 18q11 7 18 -4q17 -24 31 -35q9 -9 0 -18q-4 -4 -8 -4q-7 0 -9 3zM446 116q-11 4 -6 16q5 15 11 45v0q4 11 14 11q11 -2 11 -14q-3 -31 -14 -52q-2 -8 -11 -8q-3 0 -5 2zM92 138q-8 26 -9 53q0 13 13 13q12 0 12 -13 q4 -32 8 -45q3 -13 -8 -16h-3q-10 0 -13 8zM453 226v51q0 12 12 12q5 0 9 -3.5t4 -8.5v-51q0 -12 -13 -12q-12 0 -12 12zM83 242v49q0 13 13 13q12 0 12 -13v-49q0 -13 -12 -13q-13 0 -13 13zM453 327v50q0 12 12 12q5 0 9 -3.5t4 -8.5v-50q0 -13 -13 -13q-12 0 -12 13z M83 342v50q0 13 13 13q12 0 12 -13v-50q0 -13 -12 -13q-13 0 -13 13zM453 427v51q0 12 12 12q5 0 9 -3.5t4 -8.5v-51q0 -12 -13 -12q-12 0 -12 12zM83 443v35q0 5 4 8.5t9 3.5q12 0 12 -12v-35q0 -13 -12 -13q-13 0 -13 13z" />
<glyph unicode="v" horiz-adv-x="582" d="M113 331l-19 47q-5 11 7 16q12 6 16 -6l20 -46q5 -11 -8 -17q-1 -1 -5 -1q-7 0 -11 7zM321 140h-5q-10 6 -7 18l19 45q3 11 16 7q12 -3 8 -16l-20 -47q-4 -7 -11 -7zM393 325q-11 5 -6 17l19 46q4 12 16 6q12 -4 8 -16l-21 -47q-1 -7 -11 -7q-3 0 -5 1zM432 418 q-11 6 -6 16l18 46q8 10 18 6q11 -4 6 -16l-19 -46q-3 -7 -12 -7q-4 0 -5 1zM354 233q-10 6 -5 16l18 47q6 10 17 7q10 -7 7 -18l-20 -45q-2 -9 -11 -9q-1 0 -3 1t-3 1zM229 55l-18 46q-5 12 6 16q12 6 16 -6l20 -46q6 -12 -6 -16q-3 -1 -5 -1q-9 0 -13 7zM277 49 q-5 2 -7 6.5t1 9.5l18 46q6 12 17 6q12 -4 7 -16l-20 -46q-3 -7 -11 -7q-4 0 -5 1zM152 240l-19 45q-3 13 7 16q9 7 16 -5l19 -47q5 -11 -7 -16l-2 -1q-1 -1 -2 -1q-8 0 -12 9zM74 424l-18 46q-5 12 6 16q10 5 16 -6l20 -46q5 -10 -7 -16q-2 -1 -5 -1q-8 0 -12 7zM191 147 l-19 47q-6 12 6 16q13 4 16 -7l20 -45q4 -12 -7 -18h-4q-9 0 -12 7zM257 1h-1q-1 1 -2 1q-2 2 -4 6l-1 1q-4 11 7 16q3 2 8 0h3q11 -6 8 -16l-1 -1q-2 -5 -7 -7q-1 -1 -3 -1h-2h-2q-3 0 -3 1z" />
<glyph unicode="w" horiz-adv-x="861" d="M421 301l-9 20l-8 -20q-3 -8 -13 -8q-2 0 -5 2q-10 3 -6 16l20 46q2 7 11 7q10 2 14 -7l19 -46q7 -12 -7 -16q0 -2 -5 -2q-6 0 -11 8zM538 24l-19 46q-7 11 6 17q13 4 17 -8l20 -45q1 -3 -1 -9h1q12 -6 7 -16l-1 -1q-5 -8 -11 -8q-4 0 -6 1q-12 4 -6 16q-6 2 -7 7zM256 8 v1q-5 10 6 16h1q-2 5 1 9l18 45q6 11 18 8q12 -6 6 -17l-20 -46q-2 -6 -6 -7q4 -13 -6 -16q-3 -1 -5 -1q-10 0 -13 8zM80 425l-19 46q-6 12 7 16q11 6 17 -6l19 -46q5 -11 -8 -17q0 -1 -4 -1q-7 0 -12 8zM460 208l-20 46q-6 11 8 17q11 4 16 -6l19 -47q6 -12 -7 -16 q-1 -2 -4 -2q-9 0 -12 8zM572 49q-11 3 -7 16l19 46q3 11 16 7q13 -6 8 -17l-20 -46q-3 -7 -11 -7q-4 0 -5 1zM236 55l-19 46q-3 12 6 17q12 4 17 -7l20 -46q4 -13 -8 -16q-1 -1 -4 -1q-8 0 -12 7zM693 325h-4q-13 5 -7 17l18 46q7 10 17 7q12 -5 7 -16l-19 -47 q-3 -7 -12 -7zM197 148l-19 46q-4 12 7 17q13 4 16 -8l20 -45q3 -12 -8 -17h-3q-10 0 -13 7zM158 241l-19 45q-4 12 6 17q11 5 17 -7l20 -47q5 -10 -8 -16l-2 -1h-3q-6 0 -11 9zM649 233q-11 6 -6 16l19 47q2 5 6.5 7t9.5 -1q14 -4 8 -16l-21 -45q-2 -9 -11 -9h-2q-2 1 -3 1 zM348 202q-11 3 -7 16l20 47q5 10 17 6q10 -6 5 -17l-19 -46q-3 -8 -11 -8q-3 0 -5 2zM616 141h-5q-12 6 -6 17l18 45q4 12 17 8q11 -5 7 -17l-20 -46q-1 -7 -11 -7zM727 418q-11 5 -6 17l19 46q5 10 17 6t6 -16l-20 -46q-2 -8 -11 -8q-2 0 -5 1zM309 109q-11 3 -7 16l21 46 q4 13 16 8q11 -5 6 -17l-20 -46q-2 -8 -12 -8h-1q-2 1 -3 1zM499 116l-19 46q-6 11 6 17q11 5 17 -8l18 -46q3 -5 1 -9.5t-7 -6.5l-1 -1h-4q-6 0 -11 8zM120 332l-19 47q-5 10 6 16q13 4 16 -7l20 -46q4 -12 -7 -17h-5q-8 0 -11 7z" />
<glyph unicode="x" horiz-adv-x="570" d="M259 255h-1q-3 -2 -8 -2q-6 0 -11 6l-31 41q-8 13 4 18q8 8 18 -2l28 -40l28 40q10 10 19 2q11 -6 3 -18l-31 -41q-3 -6 -10 -6q-6 0 -8 2zM136 86q-12 8 -4 18l32 43q6 11 18 3q9 -9 3 -18l-30 -43q-6 -6 -12 -6q-1 0 -7 3zM300 174l-30 41q-9 12 3 18q10 10 18 -2 l31 -42q8 -12 -3 -18q-6 -3 -8 -3q-7 0 -11 6zM362 89l-30 43q-7 9 3 18q10 8 18 -3l31 -43q8 -10 -4 -18q-3 -3 -7 -3q-7 0 -11 6zM197 171q-11 7 -2 18l30 42q3 5 8.5 6t9.5 -4q12 -5 3 -18l-30 -41q-3 -6 -11 -6q-1 0 -4 1.5t-4 1.5zM117 427l-32 41q-7 12 3 19t18 -3 l32 -42q6 -11 -3 -18q-3 -3 -8 -3q-7 0 -10 6zM320 339q-9 9 -3 19l32 42q7 11 18 2q9 -6 3 -17l-32 -43q-3 -5 -10 -5q-2 0 -8 2zM73 3q-9 5 -2 18l31 41q7 10 18 3q10 -7 3 -18l-31 -42q-4 -5 -11 -5q-5 0 -8 3zM425 5l-32 42q-6 11 3 18q12 8 18 -3l32 -41q6 -13 -3 -18 q-3 -3 -8 -3q-7 0 -10 5zM382 424q-10 7 -3 18l32 42q6 10 18 3q9 -7 2 -19l-31 -41q-4 -6 -10 -6t-8 3zM178 342l-31 43q-7 10 2 17q13 9 18 -2l32 -42q8 -10 -3 -19q-4 -2 -8 -2q-5 0 -10 5z" />
<glyph unicode="y" horiz-adv-x="588" d="M418 119q-12 3 -8 16q9 17 12 46q2 11 14 11t12 -12v-51q0 -13 -12 -13q-4 0 -9 3q-1 -1 -4 -1q-4 0 -5 1zM119 52q-17 14 -35 40q-7 12 3 18q11 6 18 -4q15 -22 31 -35q10 -9 1 -18q-5 -5 -10 -5q-4 0 -8 4zM255 14q0 14 11 14q28 4 47 11q10 5 15 -8q4 -11 -6 -16 q-23 -8 -54 -13h-1q-10 0 -12 12zM218 5h-3q-27 6 -52 16q-11 7 -5 18t17 5q23 -10 44 -14q12 -1 10 -15q-2 -10 -11 -10zM205 -204q-29 2 -53 9q-11 4 -9 15q5 12 15 9q16 -4 48 -8q12 0 12 -12q0 -5 -4 -9t-9 -4zM351 44q-7 9 2 18q18 13 34 33q7 9 18 2q9 -8 1 -19 q-13 -18 -38 -36q-2 -3 -7 -3q-7 0 -10 5zM338 -155q-10 10 3 18q24 20 34 33q8 10 18 1q10 -8 1 -17q-22 -25 -38 -37q-1 0 -3.5 -1.5t-4.5 -1.5q-8 0 -10 5zM243 -190q-2 13 10 15q23 4 46 14q12 6 16 -6q5 -12 -6 -17q-22 -9 -51 -16h-2q-11 0 -13 10zM52 245v51 q0 13 13 13q12 0 12 -13v-51q0 -5 -3.5 -8.5t-8.5 -3.5q-13 0 -13 12zM436 15q-13 0 -13 13v50q0 13 13 13q12 0 12 -13v-50q0 -13 -12 -13zM423 430v3v50v2q2 11 13 11h2h1q1 -1 2 -1l4 -4q3 -3 3 -8v-50q0 -3 -1 -5q-2 -8 -11 -8h-4l-1 1q-1 1 -2 1q-4 2 -5 4v2zM52 347 v50q0 13 13 13q12 0 12 -13v-50q0 -5 -3.5 -9t-8.5 -4q-13 0 -13 13zM423 329v2v51v2v1l1 1q0 2 1 2q1 4 6 6h1l2 1h2h2q3 -1 7 -5q2 -2 2 -4l1 -2v-2v-51q0 -1 -0.5 -3t-0.5 -3l-2 -2q0 -1 -0.5 -1t-0.5 -1l-1 -1h-2q0 -1 -1 -1h-4h-2q-4 0 -6 2l-3 3q-1 0 -1 2q-1 1 -1 3z M406 -81q-11 4 -5 16q11 23 17 45q2 12 15 10q11 -4 9 -16q-7 -28 -19 -50q-1 -6 -10 -6q-5 0 -7 1zM61 142q-9 29 -9 53q0 12 13 12q12 0 12 -12q0 -24 8 -46q4 -13 -9 -16h-4q-10 0 -11 9zM423 228v2v51v2v1q1 1 2 2.5t1 2.5l1 1h1q3 3 8 3q6 0 9 -5q2 -2 2 -3l1 -2v-2 v-51v-3q-1 0 -1 -2q0 -1 -1.5 -2.5t-1.5 -2.5h-1q-1 -1 -2 -1q-1 -1 -3 -1h-2q-4 0 -8 2q-5 3 -5 8zM52 448v35q0 13 13 13q5 0 8.5 -4t3.5 -9v-35q0 -5 -4 -9t-8 -4q-13 0 -13 13z" />
<glyph unicode="z" horiz-adv-x="554" d="M363 409q-9 7 -2 17l28 39h-26q-12 0 -12 13q0 5 4 9t8 4h50q13 0 13 -13t-13 -13h-2q4 -8 0 -14l-30 -40q-5 -5 -11 -5q-4 0 -7 3zM66 3q-1 0 -2 1q-3 3 -3 9q0 4 3 7l30 40q8 10 18 3q9 -7 2 -17l-16 -21h14q12 0 12 -12q0 -13 -12 -13h-36h-2q-5 0 -8 3zM212 465h-50 q-13 0 -13 13q0 5 4 9t9 4h50q13 0 13 -13t-13 -13zM313 465h-50q-13 0 -13 13q0 5 4 9t9 4h50q13 0 13 -13t-13 -13zM185 165q-9 7 -3 17l30 41q8 12 18 2q8 -7 2 -18l-28 -39q-3 -5 -12 -5q-5 0 -7 2zM125 83q-8 8 -2 18l30 41q8 9 18 2q8 -8 3 -17l-31 -41q-3 -5 -10 -5 q-2 0 -8 2zM304 327q-10 8 -2 18l29 40q7 11 17 3q10 -9 4 -18l-31 -41q-5 -5 -9 -5q-2 0 -4.5 1.5t-3.5 1.5zM313 0h-50q-13 0 -13 13q0 5 4 8.5t9 3.5h50q13 0 13 -12q0 -13 -13 -13zM212 0h-50q-13 0 -13 13q0 5 4 8.5t9 3.5h50q13 0 13 -12q0 -13 -13 -13zM413 0h-50 q-12 0 -12 13q0 5 3.5 8.5t8.5 3.5h50q13 0 13 -12q0 -13 -13 -13zM245 245q-11 10 -3 18l30 41q5 10 17 3q12 -8 2 -18l-28 -40q-4 -5 -10 -5t-8 1zM112 465h-38q-13 0 -13 13q0 4 4.5 8.5t8.5 4.5h38q12 0 12 -13t-12 -13z" />
<glyph unicode="{" horiz-adv-x="480" d="M343 670q-5 14 9 19q39 13 60 13q6 1 10.5 -3t4.5 -10q2 -14 -13 -16l-15 -2q-20 -4 -38 -10l-2 -1h-3q-10 0 -13 10zM252 148h-1q-15 2 -13 16q1 5 1 15q0 20 -7 35q-5 12 8 19q13 6 19 -8q9 -23 9 -46q0 -12 -1 -18q-2 -13 -15 -13zM227 497q-3 17 -3 31q0 16 3 31 q2 14 17 12q14 -3 12 -17q-3 -12 -3 -26q0 -9 2 -27q1 -6 -2.5 -10.5t-9.5 -5.5q-1 -1 -2 -1q-12 0 -14 13zM255 598q-12 7 -4 20q19 26 45 44q13 7 20 -4q9 -13 -4 -20q-24 -17 -37 -37q-5 -6 -12 -6q-5 0 -8 3zM240 372q-14 5 -8 19q7 15 7 35q0 10 -1 15t3 10t10 6 q14 0 16 -13q0 -3 0.5 -9t0.5 -9q0 -24 -9 -46q-5 -9 -14 -9q-3 0 -5 1zM413 -98h-1q-18 0 -60 14q-14 5 -9 18q4 15 18 9q22 -7 38 -9l15 -3q6 0 10 -4.5t3 -10.5q0 -6 -4.5 -10t-9.5 -4zM227 46q-3 14 -3 31q0 15 3 31q2 14 16 12t12 -16q-2 -20 -2 -27q0 -14 3 -26 q2 -15 -12 -17h-3q-12 0 -14 12zM200 251q-21 14 -48 22q-14 3 -10 18q4 14 18 9q29 -8 57 -25q11 -9 3 -21q-4 -6 -12 -6q-3 0 -8 3zM142 314q-4 15 10 18q27 8 48 22q13 9 20 -4q9 -11 -4 -20q-25 -16 -56 -26h-4q-11 0 -14 10zM296 -57q-26 18 -45 44q-8 12 4 20 q11 9 20 -4q14 -20 37 -36q13 -7 4 -20q-3 -6 -12 -6q-5 0 -8 2zM99 284h-2q-14 3 -28 3q-15 2 -13 15v1v1q0 13 13 13q10 1 28 3q6 1 11 -2.5t6 -9.5q0 -4 -1 -6q1 -2 1 -5q-2 -13 -15 -13z" />
<glyph unicode="|" horiz-adv-x="286" d="M121 204v60q0 14 15 14t15 -14v-60q0 -6 -4.5 -10.5t-10.5 -4.5t-10.5 4.5t-4.5 10.5zM121 -33v59q0 15 15 15t15 -15v-59q0 -6 -4.5 -10.5t-10.5 -4.5t-10.5 4.5t-4.5 10.5zM121 86v59q0 6 4.5 10.5t10.5 4.5t10.5 -4.5t4.5 -10.5v-59q0 -6 -4.5 -10.5t-10.5 -4.5 t-10.5 4.5t-4.5 10.5zM121 323v59q0 6 4.5 10.5t10.5 4.5t10.5 -4.5t4.5 -10.5v-59q0 -6 -4.5 -10.5t-10.5 -4.5t-10.5 4.5t-4.5 10.5zM121 560v59q0 6 4.5 10.5t10.5 4.5t10.5 -4.5t4.5 -10.5v-59q0 -6 -4.5 -10.5t-10.5 -4.5t-10.5 4.5t-4.5 10.5zM121 678v60q0 14 15 14 t15 -14v-60q0 -14 -15 -14t-15 14zM121 441v60q0 14 15 14t15 -14v-60q0 -14 -15 -14t-15 14z" />
<glyph unicode="}" horiz-adv-x="480" d="M138 670q-3 -10 -13 -10h-3l-2 1q-18 6 -38 10l-15 2q-15 2 -13 16q0 6 4.5 10t10.5 3q21 0 60 -13q14 -5 9 -19zM230 148h-1q-13 0 -15 13q-1 6 -1 18q0 23 9 46q6 14 19 8q13 -7 8 -19q-7 -15 -7 -35q0 -10 1 -15q2 -14 -13 -16zM254 497q-2 -13 -14 -13q-1 0 -2 1 q-6 1 -9.5 5.5t-2.5 10.5q2 18 2 27q0 14 -3 26q-2 14 12 17q15 2 17 -12q3 -15 3 -31q0 -14 -3 -31zM226 598q-3 -3 -8 -3q-8 0 -12 6q-13 20 -37 37q-13 7 -4 20q7 11 20 4q26 -18 45 -44q8 -13 -4 -20zM241 372q-2 -1 -5 -1q-10 0 -14 9q-9 22 -9 46q0 3 0.5 9t0.5 9 q2 13 16 13q6 -1 10 -6t3 -10t-1 -15q0 -20 7 -35q6 -14 -8 -19zM69 -98h-1q-5 0 -9.5 4t-4.5 10q-1 6 3 10.5t10 4.5l15 3q16 2 38 9q14 6 18 -9q5 -13 -9 -18q-42 -14 -60 -14zM254 46q-2 -12 -14 -12h-3q-14 2 -12 17q3 12 3 26q0 7 -2 27q-2 14 12 16t16 -12 q3 -17 3 -31q0 -17 -3 -31zM281 251q-5 -3 -8 -3q-7 0 -12 6q-8 12 3 21q28 17 57 25q14 5 18 -9q4 -15 -10 -18q-27 -8 -48 -22zM339 314q-3 -10 -14 -10h-4q-31 10 -56 26q-13 9 -4 20q7 13 20 4q21 -14 48 -22q14 -3 10 -18zM185 -57q-3 -2 -8 -2q-9 0 -12 6q-9 13 4 20 q23 16 37 36q9 13 20 4q12 -8 4 -20q-19 -26 -45 -44zM384 284h-2q-13 0 -15 13q0 3 1 5q-1 2 -1 6q1 6 6 9.5t11 2.5q18 -2 28 -3q13 0 13 -13v-1v-1q2 -13 -13 -15q-14 0 -28 -3z" />
<glyph unicode="~" horiz-adv-x="460" d="M274 641q-9 3 -22 10q-6 4 -2 8q3 5 8 2q15 -8 20 -9q7 -2 3 -8q-2 -4 -5 -4q-1 0 -2 1zM232 665q-3 2 -19 10q-5 2 -3 8q2 3 8 3q14 -7 21 -12q6 -3 1 -8q0 -2 -4 -2q-2 0 -4 1zM193 681h-1q-5 1 -14 1h-8q-2 -1 -3.5 1t-1.5 4q-1 6 5 6q2 1 8 1q2 0 8 -0.5t8 -0.5 q5 -2 5 -7t-6 -5zM297 635q-5 0 -5 6q2 7 7 5q5 -1 15 -1h7q4 0 6 -5q0 -6 -5 -6q-2 0 -4.5 -0.5t-3.5 -0.5h-1q-6 0 -16 2zM338 642q-2 5 4 8q11 4 19 9q4 4 8 -1q1 -1 0.5 -4t-2.5 -4q-5 -4 -21 -11l-1 -1h-1q-4 0 -6 4zM122 670q-3 6 2 8q9 6 22 11q6 0 7 -4q2 -6 -4 -8 q-9 -3 -20 -8l-2 -2q-5 0 -5 3zM377 667q-5 4 -1 8q8 9 10 18q4 5 8 4q6 -4 3 -8q-1 -3 -12 -22q-1 -1 -5 -1q-2 0 -3 1zM88 639q-5 2 -1 8l17 17q4 4 8 0q3 -5 -1 -9l-11 -11l-4 -4q-2 -3 -4 -3t-4 2z" />
<glyph unicode="&#xad;" horiz-adv-x="408" d="M189 340q-7 0 -7 10q0 11 7 11h29q8 0 8 -11q0 -10 -8 -10h-29zM131 340q-7 0 -7 10q0 11 7 11h29q8 0 8 -11q0 -10 -8 -10h-29zM73 340q-7 0 -7 10q0 11 7 11h29q8 0 8 -11q0 -10 -8 -10h-29z" />
<glyph unicode="&#x2000;" horiz-adv-x="404" />
<glyph unicode="&#x2001;" horiz-adv-x="808" />
<glyph unicode="&#x2002;" horiz-adv-x="404" />
<glyph unicode="&#x2003;" horiz-adv-x="808" />
<glyph unicode="&#x2004;" horiz-adv-x="269" />
<glyph unicode="&#x2005;" horiz-adv-x="202" />
<glyph unicode="&#x2006;" horiz-adv-x="134" />
<glyph unicode="&#x2007;" horiz-adv-x="134" />
<glyph unicode="&#x2008;" horiz-adv-x="101" />
<glyph unicode="&#x2009;" horiz-adv-x="161" />
<glyph unicode="&#x200a;" horiz-adv-x="44" />
<glyph unicode="&#x2010;" horiz-adv-x="408" d="M189 340q-7 0 -7 10q0 11 7 11h29q8 0 8 -11q0 -10 -8 -10h-29zM131 340q-7 0 -7 10q0 11 7 11h29q8 0 8 -11q0 -10 -8 -10h-29zM73 340q-7 0 -7 10q0 11 7 11h29q8 0 8 -11q0 -10 -8 -10h-29z" />
<glyph unicode="&#x2011;" horiz-adv-x="408" d="M189 340q-7 0 -7 10q0 11 7 11h29q8 0 8 -11q0 -10 -8 -10h-29zM131 340q-7 0 -7 10q0 11 7 11h29q8 0 8 -11q0 -10 -8 -10h-29zM73 340q-7 0 -7 10q0 11 7 11h29q8 0 8 -11q0 -10 -8 -10h-29z" />
<glyph unicode="&#x2013;" horiz-adv-x="500" d="M100 250v100h300v-100h-300z" />
<glyph unicode="&#x2014;" horiz-adv-x="1000" d="M100 250v100h800v-100h-800z" />
<glyph unicode="&#x2018;" horiz-adv-x="230" d="M124 620q0 -6 -6 -6h-3q-38 10 -38 55v1v3v3v3l1 2q5 18 23 18q11 0 18.5 -7.5t7.5 -18.5q0 -10 -7.5 -17t-18.5 -7h-6q7 -16 24 -20q8 -4 5 -9z" />
<glyph unicode="&#x2019;" horiz-adv-x="230" d="M62 621q-3 5 5 9q18 4 23 20h-5q-11 0 -18.5 7t-7.5 17t7.5 18t18.5 8q18 0 23 -18q0 -2 1 -2v-10q0 -45 -38 -55h-3q-6 0 -6 6z" />
<glyph unicode="&#x201c;" horiz-adv-x="410" d="M124 694q3 -5 -5 -9q-17 -5 -24 -21q2 1 6 1q11 0 18.5 -7t7.5 -17q0 -11 -7.5 -18.5t-18.5 -7.5q-18 0 -23 18q-1 0 -1 2v6v3v1q0 45 38 55h3q6 0 6 -6zM198 694q3 -5 -5 -9q-17 -5 -24 -21q2 1 6 1q11 0 18.5 -7t7.5 -17q0 -11 -7.5 -18.5t-18.5 -7.5q-18 0 -23 18 q-1 0 -1 2v2v4v4q0 45 38 55h3q6 0 6 -6z" />
<glyph unicode="&#x201d;" horiz-adv-x="410" d="M136 622q-3 5 5 9q18 4 23 20h-5q-11 0 -18.5 7t-7.5 17q0 11 7.5 18.5t18.5 7.5q18 0 23 -18q0 -2 1 -2v-6v-3v-1q0 -45 -38 -55h-3q-6 0 -6 6zM62 622q-3 5 5 9q18 4 23 20h-5q-11 0 -18.5 7t-7.5 17q0 11 7.5 18.5t18.5 7.5q18 0 23 -18q0 -2 1 -2v-6v-3v-1 q0 -45 -38 -55h-3q-6 0 -6 6z" />
<glyph unicode="&#x2026;" horiz-adv-x="690" d="M592 28q0 -10 -7 -17.5t-17 -7.5t-18 7.5t-8 17.5t7.5 17.5t18.5 7.5q10 0 17 -7.5t7 -17.5zM362 28q0 -10 -7 -17.5t-17 -7.5t-18 7.5t-8 17.5t7.5 17.5t18.5 7.5q10 0 17 -7.5t7 -17.5zM132 28q0 -10 -7 -17.5t-17 -7.5t-18 7.5t-8 17.5t7.5 17.5t18.5 7.5 q10 0 17 -7.5t7 -17.5z" />
<glyph unicode="&#x202f;" horiz-adv-x="161" />
<glyph unicode="&#x205f;" horiz-adv-x="202" />
<glyph unicode="&#x2122;" horiz-adv-x="1492" d="M1057 298q-4 1 -6 7q0 -5 -4 -7q-5 -3 -8 -3q-7 0 -10 5l-31 43q-8 10 4 18q10 8 18 -4l30 -41q2 -8 1 -11q-1 4 2 11l32 41q5 11 18 4q9 -9 2 -18l-31 -43q-1 -5 -10 -5q-4 0 -7 3zM787 637l-9 12v-15q0 -13 -13 -13t-13 13v52q0 13 13 13q3 0 4 -1q3 0 9 -4l30 -43 q7 -9 -3 -17q-3 -3 -8 -3t-10 6zM1325 634v14l-8 -11q-3 -6 -11 -6q-5 0 -7 3q-10 7 -4 17l31 43q4 4 8 4q1 1 4 1q13 0 13 -13v-52q0 -13 -13 -13q-4 0 -8.5 4.5t-4.5 8.5zM752 13v52q0 13 13 13t13 -13v-52q0 -13 -13 -13t-13 13zM752 220v52q0 13 13 13t13 -13v-52 q0 -13 -13 -13t-13 13zM752 427v52q0 13 13 13t13 -13v-52q0 -13 -13 -13t-13 13zM1117 382q-9 7 -3 18l30 41q9 12 18 3q12 -7 4 -17l-31 -43q-4 -5 -10 -5q-5 0 -8 3zM1325 13v52q0 5 4 9t9 4q13 0 13 -13v-52q0 -13 -13 -13q-5 0 -9 4t-4 9zM1325 220v52q0 5 4 9t9 4 q13 0 13 -13v-52q0 -13 -13 -13q-5 0 -9 4t-4 9zM1325 427v52q0 13 13 13t13 -13v-52q0 -13 -13 -13q-4 0 -8.5 4t-4.5 9zM846 552l-29 42q-7 11 2 18q13 9 18 -3l31 -41q7 -11 -3 -18q-2 -3 -7 -3q-7 0 -12 5zM752 323v52q0 13 13 13t13 -13v-52q0 -12 -13 -12t-13 12z M752 116v52q0 13 13 13t13 -13v-52q0 -12 -13 -12t-13 12zM752 530v52q0 13 13 13t13 -13v-52q0 -12 -13 -12t-13 12zM1178 466q-9 7 -3 18l30 41q8 13 18 3q12 -8 3 -18l-30 -42q-5 -5 -11 -5q-5 0 -7 3zM1325 116v52q0 13 13 13t13 -13v-52q0 -12 -13 -12q-5 0 -9 4t-4 8z M1325 323v52q0 13 13 13t13 -13v-52q0 -12 -13 -12q-5 0 -9 4t-4 8zM1325 530v52q0 13 13 13t13 -13v-52q0 -12 -13 -12q-5 0 -9 4t-4 8zM968 384l-30 43q-10 10 3 17q10 10 18 -3l30 -41q6 -11 -3 -18q-3 -3 -8 -3q-6 0 -10 5zM1239 550q-12 7 -3 18l30 41q6 11 18 3 q9 -7 2 -18l-29 -42q-5 -5 -11 -5q-5 0 -7 3zM907 468l-29 42q-7 11 2 18q12 8 18 -3l30 -41q8 -12 -3 -18q-2 -3 -7 -3q-6 0 -11 5zM268 635v39q-11 2 -11 13q0 13 13 13h11h2h39q13 0 13 -13q0 -5 -4 -9t-9 -4h-28v-39q0 -13 -13 -13t-13 13zM268 220v52q0 13 13 13 q5 0 9 -4t4 -9v-52q0 -5 -4 -9t-9 -4q-13 0 -13 13zM268 324v52q0 13 13 13q5 0 9 -4.5t4 -8.5v-52q0 -13 -13 -13t-13 13zM268 428v52q0 13 13 13q5 0 9 -4.5t4 -8.5v-52q0 -13 -13 -13t-13 13zM268 13v52q0 13 13 13q5 0 9 -4t4 -9v-52q0 -13 -13 -13t-13 13zM530 674h-52 q-13 0 -13 13t13 13h52q13 0 13 -13q0 -5 -4.5 -9t-8.5 -4zM426 674h-52q-13 0 -13 13t13 13h52q13 0 13 -13q0 -5 -4.5 -9t-8.5 -4zM115 674h-52q-13 0 -13 13t13 13h52q13 0 13 -13q0 -5 -4 -9t-9 -4zM268 117v52q0 12 13 12q5 0 9 -4t4 -8v-52q0 -13 -13 -13t-13 13z M268 531v52q0 13 13 13q5 0 9 -4t4 -9v-52q0 -12 -13 -12t-13 12zM219 674h-52q-13 0 -13 13t13 13h52q12 0 12 -13q0 -5 -4 -9t-8 -4z" />
</font>
</defs>
</svg>
